Page 3 of 7 FirstFirst 12345 ... LastLast
Results 21 to 30 of 62
  1. #1
    Status
    Offline
    sohajda's Avatar
    Feltöltő
    Csatlakozott
    13-02-09
    Hozzászólások
    768
    Köszönöm
    23
    2.711 Kapott Köszi 787 Témáért

    Japán filmek - kollekció

    47 Ronin (Genroku Chushingura, 1941) DVDRip.Hunsub.
    Fekete-fehér, égetett Japán fílmdráma




    Rendező: Kenji Mizoguchi

    Szereplők:
    Fuwa Kazuemon........................................Ka tô Daisuke
    Kuranosuke Oishi........................Kawarasaki Chojuro
    Lord Takuminokami Asano.........Arashi Yoshizaburo
    Tsunatoyo Tokugawa.....................Ichikawa Utaemon

    Tartalom:
    1701-ben, mintegy 100 évvel a nagy háborúk lezárása után, a szamurájok helyzete teljesen átalakult. Igazából fölöslegessé lettek, már csak kevesen élik a harcosok életét. Hivatalnokokká, vagy naplopókká váltak, dúl a korrupció. Egy tüzes természetű, becsületes, vidéki földesúr kapja a feladatot, hogy tegyen ellene. Az Ako klán ifjú ura hamar ellentétbe kerül a Kirával, a „Szertartás mesterrel”, aki leplezetlenül várja a megvesztegetést. A shógun palotájában kardot rántani halálos bűntett, s a felbőszített, megsértett ifjú Asano ezt követi el. A lelketlen, bürokratikus bíróság a valós körülményeket mit sem mérlegelve hozza meg az ítéletét. Az ifjút harakirire, a klánt feloszlatásra ítélik. A földönfutóvá lett szamurájok egy része bosszút esküszik, pedig a Shógunátus ítéletét megkérdőjelezni egyenlő a biztos pusztulással. A kamarás, Oishi, fondorlatos tervet eszel ki, jól tudván, az ellenfeleik is készülnek a várható bosszúra.




    1941.47 Ronin.cd1-2.avi
    Format : AVI
    Format/Info : Audio Video Interleave
    File size : 920 MiB
    Duration : 1h 51mn
    Overall bit rate : 1 153 Kbps
    Writing application : MEncoder SVN-r33883(20110719-gcc4.5.2)
    Writing library : MPlayer

    Video
    ID : 0
    Format : MPEG-4 Visual
    Format profile : Advanced Simple@L5
    Format settings, BVOP : 2
    Format settings, QPel : No
    Format settings, GMC : No warppoints
    Format settings, Matrix : Default (H.263)
    Codec ID : XVID
    Codec ID/Hint : XviD
    Duration : 1h 51mn
    Bit rate : 1 012 Kbps
    Width : 528 pixels
    Height : 352 pixels
    Display aspect ratio : 3:2
    Frame rate : 29.970 fps
    Color space : YUV
    Chroma subsampling : 4:2:0
    Bit depth : 8 bits
    Scan type : Progressive
    Compression mode : Lossy
    Bits/(Pixel*Frame) : 0.182
    Stream size : 807 MiB (88%)
    Writing library : XviD 1.2.1 (UTC 2008-12-04)

    Audio
    ID : 1
    Format : MPEG Audio
    Format version : Version 1
    Format profile : Layer 3
    Mode : Joint stereo
    Mode extension : MS Stereo
    Codec ID : 55
    Codec ID/Hint : MP3
    Duration : 1h 51mn
    Bit rate mode : Constant
    Bit rate : 128 Kbps
    Channel(s) : 2 channels
    Sampling rate : 44.1 KHz
    Compression mode : Lossy
    Delay relative to video : 33ms
    Stream size : 102 MiB (11%)
    Alignment : Aligned on interleaves
    Interleave, duration : 26 ms (0.78 video frame)
    Interleave, preload duratio : 522 ms
    Writing library : LAME3.98.4

    CD1: 920 MB

    Link megtekintéséhez LÉPJ BE vagy REGISZTRÁLJ az oldalra

    CD2: 1,0 GB

    Link megtekintéséhez LÉPJ BE vagy REGISZTRÁLJ az oldalra



    Hasonló témák:

    • Eddig 5 Felhasználó mondott köszönetet sohajda felhaszlálónak ezért a témáért:

      InoK (2016-03-09),jaszkapitany (2016-04-08),Sagittarius (2016-03-09),Synx (2016-08-22),tegla73 (2016-04-24)

    • #21
      Status
      Offline
      sohajda's Avatar
      Feltöltő
      Csatlakozott
      13-02-09
      Hozzászólások
      768
      Köszönöm
      23
      2.711 Kapott Köszi 787 Témáért
      Derszu Uzala (Dersu Uzala, 1975) DVDRip.Hun.
      Szines,.szovjet-japán kaland




      Stáblista:
      rendezte..........,,,...........Akira Kuroszava
      producer...Nikolai Sizov,Yoichi Matsue
      forgatókönyv:
      Jurij Nagibin
      Akira Kuroszava
      Vlagyimir Arszenyev (történet)
      fényképezte:...................Asakazu Nakai
      zene...................................Isaac Schwalz

      Szereplők:
      Maxim Munzuk
      Jurij Szolomin
      Szujmenkul Csokmorov

      Tartalom:
      1902-ben expedíció indul az Usszuri vidékére, vezetőjük Arszenyev kapitány. Egyik éjszaka találkozik Derszu Uzalával, a nanáj vadásszal. Megkéri, hogy csatlakozzon hozzájuk, legyen segítségükre. Derszu egész életét a tajgán töltötte, ért a fák, a virágok nyelvén. A katonák először megmosolyogják az öreg ember tanácsait, de hamarosan rá kell jönniük, hogy leleményessége, tapasztalatai nélkül nem jutnának messzire. Az expedíció teljesíti feladatát, visszatérhetnek a városba. Néhány év múlva Arszenyev ismét kutatóútra indul, és a véletlen ismét eléhozza Derszu Uzalát ...




      1975. Derszu Uzala
      Format : AVI
      Format/Info : Audio Video Interleave
      File size : 1 017 MiB
      Duration : 2h 16mn
      Overall bit rate : 1 046 Kbps
      Writing library : MPlayer

      Video
      ID : 0
      Format : MPEG-4 Visual
      Format profile : Simple@L1
      Format settings, BVOP : No
      Format settings, QPel : No
      Format settings, GMC : No warppoints
      Format settings, Matrix : Default (H.263)
      Codec ID : DX50
      Codec ID/Hint : DivX 5
      Duration : 2h 16mn
      Bit rate : 880 Kbps
      Width : 704 pixels
      Height : 320 pixels
      Display aspect ratio : 2.2:1
      Frame rate : 25.000 fps
      Color space : YUV
      Chroma subsampling : 4:2:0
      Bit depth : 8 bits
      Scan type : Interlaced
      Scan order : Top Field First
      Compression mode : Lossy
      Bits/(Pixel*Frame) : 0.156
      Stream size : 857 MiB (84%)
      Writing library : Lavc52.72.2

      Audio
      ID : 1
      Format : MPEG Audio
      Format version : Version 1
      Format profile : Layer 3
      Mode : Joint stereo
      Mode extension : MS Stereo
      Codec ID : 55
      Codec ID/Hint : MP3
      Duration : 2h 16mn
      Bit rate mode : Constant
      Bit rate : 160 Kbps
      Channel(s) : 2 channels
      Sampling rate : 44.1 KHz
      Compression mode : Lossy
      Stream size : 156 MiB (15%)
      Alignment : Split accross interleaves
      Interleave, duration : 500 ms (12.50 video frames)
      Interleave, preload duratio : 500 ms
      Writing library : LAME3.98.4

      Link megtekintéséhez LÉPJ BE vagy REGISZTRÁLJ az oldalra




    • Eddig 4 Felhasználó mondott köszönetet sohajda felhaszlálónak ezért a témáért:

      buga4 (2016-07-02),geronimo (2017-02-01),Sagittarius (2016-04-14),tegla73 (2016-04-24)

    • #22
      Status
      Offline
      sohajda's Avatar
      Feltöltő
      Csatlakozott
      13-02-09
      Hozzászólások
      768
      Köszönöm
      23
      2.711 Kapott Köszi 787 Témáért
      Érzékek birodalma (Ai no corrida,1976) DVDRip.Hunsub.
      Színes, égetett japán-francia filmdráma

      18 éven felülieknek!




      Stáblista:
      rendező........................Nagisa Oshima
      forgatókönyvíró.........Nagisa Oshima
      zeneszerző........................Minoru Miki
      operatőr................................Hideo Itoh
      vágó...............................Keiichi Uraoka

      Szereplők:
      Tatsuya Fuji.............................Kicsizo
      Eiko Matsuda.............................Szada
      Aoi Nakajima................................Toku
      Yasuko Matsui........................Tagawa
      Meika Seri..............................Matsuko

      Tartalom:
      Nagisza Oshima alkotása egy nagy port kavart szerelmi bűnügy alapján készült, amely 1936-ban történt Japánban. Egy volt prostituált, Abe Szada minden konvenciót felrúgó szerelmi viszonyt folytatott főnökével, akit végül megfojtott, péniszét levágta és magával vitte. Három nappal később került rendőrkézre. Ügye nagy felzúdulást váltott ki Japánban, mert rávilágított a társadalmi különbségekre és a hagyományos japán erkölcsök válságára. A filmmel szinte egy időben a témának egy másik mozgóképes feldolgozása is készült, kizárólag japán produkcióban, Noburu Tanaka rendezésében: Jitsuroku Abe Sada (1975). Az érzékek birodalma világszerte szélsőséges fogadtatásban részesült: számos kritikus korszakalkotó remekműként méltatta, miközben mások részéről elhangzott a pornográfia vádja. (A filmben valódi, nem imitált közösülések és egyéb szexuális cselekedetek láthatók.) A nyugatnémet hatóságok az 1976-os nyugat-berlini filmfesztivál idején pornográfia vádjával lefoglalták a kópiát, és az egész NSZK-ban betiltották a filmet. (A vádat néhány hónappal később ejtették, és a bemutatót engedélyezték.) Japánban ugyancsak pornográfia miatt emeltek vádat a rendező ellen: a bírósági eljárásnak nagy nemzetközi visszhangja támadt, számos világhírű művész nyilatkozatban állt ki a perbe fogott Oshima és filmje mellett. /wiki/




      1976. Érzékek birodalma
      Format : AVI
      Format/Info : Audio Video Interleave
      Format profile : OpenDML
      File size : 1.02 GiB
      Duration : 1h 37mn
      Overall bit rate : 1 495 Kbps
      Writing application : MEncoder SVN-r33883(20110719-gcc4.5.2)
      Writing library : MPlayer

      Video
      ID : 0
      Format : MPEG-4 Visual
      Format profile : Advanced Simple@L5
      Format settings, BVOP : 2
      Format settings, QPel : No
      Format settings, GMC : No warppoints
      Format settings, Matrix : Default (H.263)
      Codec ID : XVID
      Codec ID/Hint : XviD
      Duration : 1h 37mn
      Bit rate : 1 351 Kbps
      Width : 800 pixels
      Height : 448 pixels
      Display aspect ratio : 16:10
      Original display aspect rat : 16:9
      Frame rate : 25.000 fps
      Color space : YUV
      Chroma subsampling : 4:2:0
      Bit depth : 8 bits
      Scan type : Progressive
      Compression mode : Lossy
      Bits/(Pixel*Frame) : 0.151
      Stream size : 943 MiB (90%)
      Writing library : XviD 1.2.1 (UTC 2008-12-04)

      Audio
      ID : 1
      Format : MPEG Audio
      Format version : Version 1
      Format profile : Layer 3
      Mode : Joint stereo
      Mode extension : MS Stereo
      Codec ID : 55
      Codec ID/Hint : MP3
      Duration : 1h 37mn
      Bit rate mode : Constant
      Bit rate : 128 Kbps
      Channel(s) : 2 channels
      Sampling rate : 44.1 KHz
      Compression mode : Lossy
      Delay relative to video : 40ms
      Stream size : 89.4 MiB (9%)
      Alignment : Aligned on interleaves
      Interleave, duration : 26 ms (0.65 video frame)
      Interleave, preload duratio : 522 ms

      Link megtekintéséhez LÉPJ BE vagy REGISZTRÁLJ az oldalra




    • Eddig 5 Felhasználó mondott köszönetet sohajda felhaszlálónak ezért a témáért:

      Merle (2017-02-18),Sagittarius (2016-04-14),tegla73 (2016-04-24),Tinus732013 (2016-08-29),tomnemis (2016-12-19)

    • #23
      Status
      Offline
      sohajda's Avatar
      Feltöltő
      Csatlakozott
      13-02-09
      Hozzászólások
      768
      Köszönöm
      23
      2.711 Kapott Köszi 787 Témáért
      Öld meg a sógunt - A sógun szamurájai (Yagyu ichizoku no inbô, 1978)
      DVDRip.Hun. színes, szinkr. japán akciófilm




      Stáblista:
      rendező......................Kinji Fukasaku
      forgatókönyvíró.......Kinji Fukasaku
      operatőr......................Toru Nakajima
      zene....................Toshiaki Tsushima

      Szereplők:
      Kinnosuke Nakamura......Yagyu Tajima
      Sonny Chiba.................................Yaguyu
      Teruhiko Saigo....Tadanaga Tokugawa
      Reiko Ohara.....................................Okuni
      Yoshio Harada..............................Nagoya
      Etsuko Shihomi..............................Akane
      Kentaro Kudo.............................Matajuro

      Tartalom:
      A második Tokugawa-sógun halála után kiderül, valójában fia, Iemitsu bérelte fel a gyilkosokat, hogy mérgezzék meg őt, abban a reményben, hogy a fiú örökli a sógunátust - dadogása és arcán lévő anyajegye ellenére. Iemitsu és testvére, Tadanaga halálos ellenségekké válnak, a nép pedig két szembenálló oldalra bomlik, s véres háború veszi kezdetét. Iemitsu kardvívástanára, Yaguyu mindenre elszánt, csak hogy Iemitsu legyen a sógun, ennek érdekében mindenkit elárul, még saját családját is.




      1978.Öld meg a Shogunt
      Format : AVI
      Format/Info : Audio Video Interleave
      File size : 987 MiB
      Duration : 2h 4mn
      Overall bit rate : 1 107 Kbps
      Movie name : OLD_MEG_A_SOGUNT_1_BLACKMIRROR.Title1.DVDRip
      Writing application : Lavf53.32.100
      Original source form/Name : OLD_MEG_A_SOGUNT_1_BLACKMIRROR

      Video
      ID : 0
      Format : MPEG-4 Visual
      Format profile : Advanced Simple@L5
      Format settings, BVOP : 2
      Format settings, QPel : No
      Format settings, GMC : No warppoints
      Format settings, Matrix : Default (H.263)
      Muxing mode : Packed bitstream
      Codec ID : XVID
      Codec ID/Hint : XviD
      Duration : 2h 4mn
      Bit rate : 998 Kbps
      Width : 720 pixels
      Height : 300 pixels
      Display aspect ratio : 2.40:1
      Frame rate : 25.000 fps
      Color space : YUV
      Chroma subsampling : 4:2:0
      Bit depth : 8 bits
      Scan type : Progressive
      Compression mode : Lossy
      Bits/(Pixel*Frame) : 0.185
      Stream size : 890 MiB (90%)
      Writing library : XviD 64

      Audio
      ID : 1
      Format : MPEG Audio
      Format version : Version 1
      Format profile : Layer 3
      Mode : Joint stereo
      Mode extension : MS Stereo
      Codec ID : 55
      Codec ID/Hint : MP3
      Duration : 2h 4mn
      Bit rate mode : Constant
      Bit rate : 96.0 Kbps
      Channel(s) : 2 channels
      Sampling rate : 48.0 KHz
      Compression mode : Lossy
      Stream size : 85.6 MiB (9%)
      Alignment : Aligned on interleaves
      Interleave, duration : 24 ms (0.60 video frame)

      Link megtekintéséhez LÉPJ BE vagy REGISZTRÁLJ az oldalra


      Öld meg a Shogunt! - A Shogun nindzsái
      (Ninja bugeicho momochi sandayu, 1980) DVDRip.hun.

      Szines szinkr. japán akció, kaland




      Stáblista:
      rendező.......................Norifumi Suzuki
      forgatókönyvíró............Fumio Konami
      operatőr.......................Toru Nakajima

      Szereplők:
      Hiroyuki Sanada..........Momochi Takamaru
      Sonny Chiba...............Shiranui Shogen
      Asao Koike.................Toyotomi Hideyoshi
      Yuki Ninagawa............Otsu
      Etsuko Shihomi...........Ai-Lian

      Tartalom:
      A film a XVI. századi Japánban játszódik, amikor a hatalomra éhes Hideyosi hadvezér a Momochi klán életére tör. A klán aranyára fáj a foga, aminek a kulcsa két tőr. Gyilkos nindzsáival kivégzi a Momochiakat, egy kivételével. Akkor még kisgyerek Takamura Kínába menekül, s harcos felnőttként tér vissza. Amikor Hideyosi hadvezér rájön, hogy a fiú visszatért, és segítői is vannak, újra megpróbálja megölni. Mindenáron meg akarja szerezni a tőröket. Bár a harc sok áldozatot követel, s Takamurának árulókkal is szembe kell néznie, végül legyőzi a gonosz vezért.

      Formátum : AVI
      Formátum/adatok : Audio Video Interleave
      Formátum profil : OpenDML
      Fájlméret : 1,29 GiB
      Időtartam : 1 óra 52 perc
      Teljes adatsebesség : 1 644 Kbps

      Link megtekintéséhez LÉPJ BE vagy REGISZTRÁLJ az oldalra



      Last edited by sohajda; 2016-03-10 at 19:50.

    • A következő felhasználók köszönték meg sohajda hozzászólását

      Sabres (2016-11-20)

    • #24
      Status
      Offline
      sohajda's Avatar
      Feltöltő
      Csatlakozott
      13-02-09
      Hozzászólások
      768
      Köszönöm
      23
      2.711 Kapott Köszi 787 Témáért
      A Shogun orgyilkosa 1. (Shogun Assassin, 1980) DVDRip. Hun.
      Szines, japán-amerikai akció




      Stáblista:
      rendezte.........................Robert Houston
      producer.........................Shintaro Katsu
      forgatókönyv................Robert Houston
      fényképezte...................Chishi Makiura
      vágó.........................................Lee Percy
      zene.............................W. Michael Lewis
      látványtervezés.....Akira Kaijo (díszlet)

      Szereplők:
      Tomisaburo Wakayama.......Ogami Itto
      Akihiro Tomikawa.....................Daigoro
      Kayo Matsuo
      Minoru Ohki
      Akiji Kobayashi
      Shin Kishida

      Tartalom:
      Ogami Itto a sógun leghűbb szamurája, aki nem kérdőjelezi meg gazdája parancsait, és kegyetlenül végez annak ellenlábasaival. Amikor viszont hazatér, szerető férj és gondoskodó apa válik belőle. A sógun azonban egyre inkább elveszti az eszét, és félteni kezdi hatalmát Ogamitól, ezért bérgyilkosokat küld ellene, akik azonban csak Azamit, Ogami feleségét ölik meg. A gazdátlanná vált szamuráj ezután bosszút esküszik, és kisfiával, Daigoróval együtt számol le a sógun csatlósaival.




      1980. A shogun orgyílkosa 1.
      Format : AVI
      Format/Info : Audio Video Interleave
      File size : 700 MiB
      Duration : 1h 21mn
      Overall bit rate mode : Variable
      Overall bit rate : 1 201 Kbps
      Writing application : Nandub v1.0rc2
      Writing library : Nandub build 1853/release

      Video
      ID : 0
      Format : MPEG-4 Visual
      Format profile : Advanced Simple@L5
      Format settings, BVOP : 1
      Format settings, QPel : No
      Format settings, GMC : No warppoints
      Format settings, Matrix : Custom
      Codec ID : XVID
      Codec ID/Hint : XviD
      Duration : 1h 21mn
      Bit rate : 1 084 Kbps
      Width : 704 pixels
      Height : 304 pixels
      Display aspect ratio : 2.35:1
      Frame rate : 25.000 fps
      Color space : YUV
      Chroma subsampling : 4:2:0
      Bit depth : 8 bits
      Scan type : Progressive
      Compression mode : Lossy
      Bits/(Pixel*Frame) : 0.203
      Stream size : 632 MiB (90%)
      Writing library : XviD 1.2.0.dev47 (UTC 2006-11-01)

      Audio
      ID : 1
      Format : MPEG Audio
      Format version : Version 1
      Format profile : Layer 3
      Mode : Joint stereo
      Mode extension : MS Stereo
      Codec ID : 55
      Codec ID/Hint : MP3
      Duration : 1h 21mn
      Bit rate mode : Variable
      Bit rate : 104 Kbps
      Nominal bit rate : 128 Kbps
      Channel(s) : 2 channels
      Sampling rate : 48.0 KHz
      Compression mode : Lossy
      Stream size : 60.8 MiB (9%)
      Alignment : Aligned on interleaves
      Interleave, duration : 24 ms (0.60 video frame)
      Interleave, preload duratio : 169 ms
      Writing library : LAME3.97
      Encoding settings : -m j -V 4 -q 2 -lowpass 17 --abr 128

      Link megtekintéséhez LÉPJ BE vagy REGISZTRÁLJ az oldalra




    • A következő felhasználók köszönték meg sohajda hozzászólását

      holya (2016-06-25)

    • #25
      Status
      Offline
      sohajda's Avatar
      Feltöltő
      Csatlakozott
      13-02-09
      Hozzászólások
      768
      Köszönöm
      23
      2.711 Kapott Köszi 787 Témáért
      Árnyéklovas (Kagemusha, 1980) DVDRip.Hunsub.
      Szines, égetett történelmi dráma




      Stáblista:
      rendezte..........................Akira Kuroszava
      producer.........................Akira Kuroszava
      forgatókönyv..................Akira Kuroszava
      fényképezte.............................Takao Saito
      látványtervezés...............Yoshiro Muraki

      Szereplők:
      Nakadai Tacuja
      Jamazaki Cutomu
      Hagivara Kenicsi
      Nezu Jinpacsi
      Shuji Otaki

      Tartalom:
      A 16. századi japán történelmet a vissza-visszatérő polgárháborúk, a hatalomra törő klánok egymás ellen indított harcai jellemezték. Takeda Singen herceg klánja hatalma megóvása érdekében hadicselhez folyamodik: egy "árnyékharcost", vagyis "kagemusát" bérel fel és állít vezére helyébe a harcmezőkön. Ez a hasonmás egy gazfickó, akit csupán a klán urához való tökéletes hasonlósága ment meg a kivégzéstől. A kagemusa mindinkább belejön szerepébe, és a klán seregei győzelmet győzelemre halmoznak parancsnogsága alatt. A herceg fia, Kacujori azonban ezt nem nézi jó szemmel, s végül eléri, hogy elkergetik az udvartól. Ezzel azonban megkezdődik a nagy hatalmú nemzetség pusztulása: hadseregük a végső véres ütközetben megsemmisítő vereséget szenved.




      1980. Az árnyéklovas
      Format : AVI
      Format/Info : Audio Video Interleave
      Format profile : OpenDML
      File size : 2.14 GiB
      Duration : 2h 32mn
      Overall bit rate : 2 003 Kbps
      Writing application : MEncoder SVN-r33883(20110719-gcc4.5.2)
      Writing library : MPlayer

      Video
      ID : 0
      Format : MPEG-4 Visual
      Format profile : Advanced Simple@L5
      Format settings, BVOP : 2
      Format settings, QPel : No
      Format settings, GMC : No warppoints
      Format settings, Matrix : Default (H.263)
      Codec ID : XVID
      Codec ID/Hint : XviD
      Duration : 2h 32mn
      Bit rate : 1 863 Kbps
      Width : 712 pixels
      Height : 400 pixels
      Display aspect ratio : 16:9
      Original display aspect rat : 16:9
      Frame rate : 25.000 fps
      Color space : YUV
      Chroma subsampling : 4:2:0
      Bit depth : 8 bits
      Scan type : Progressive
      Compression mode : Lossy
      Bits/(Pixel*Frame) : 0.262
      Stream size : 1.99 GiB (93%)
      Writing library : XviD 1.2.1 (UTC 2008-12-04)

      Audio
      ID : 1
      Format : MPEG Audio
      Format version : Version 1
      Format profile : Layer 3
      Mode : Joint stereo
      Mode extension : MS Stereo
      Codec ID : 55
      Codec ID/Hint : MP3
      Duration : 2h 32mn
      Bit rate mode : Constant
      Bit rate : 128 Kbps
      Channel(s) : 2 channels
      Sampling rate : 44.1 KHz
      Compression mode : Lossy
      Delay relative to video : 40ms
      Stream size : 140 MiB (6%)
      Alignment : Aligned on interleaves
      Interleave, duration : 26 ms (0.65 video frame)
      Interleave, preload duratio : 522 ms
      Writing library : LAME3.98.4

      Link megtekintéséhez LÉPJ BE vagy REGISZTRÁLJ az oldalra




    • #26
      Status
      Offline
      sohajda's Avatar
      Feltöltő
      Csatlakozott
      13-02-09
      Hozzászólások
      768
      Köszönöm
      23
      2.711 Kapott Köszi 787 Témáért
      A nyolc szamuráj legendája (Satomi hakken-den, 1983) DVDRip.Hun.
      Szines, szinkr. +felirat japán akció




      Stáblista:
      rendező...........................Kinji Fukasaku
      forgatókönyvíró............Kinji Fukasaku
      operatőr............................Seizô Sengen
      zene..................................Joey Carbone
      producer...................Hiroshi Sugawara

      Szereplők:
      Hiroko Yakushimaru................................Shizu
      Hiroyuki Sanada.............Inue Shinbei Masashi
      Sonny Chiba..........Inuyama Dosetsu Tadatomo
      Yuki Meguro...........Hikita Gonnokami Motofuji
      Etsuko Shihomi...........Inusaka Keno Tanetomo

      Tartalom:
      Shizu hercegnő megmenekül, miközben a Hikita klán megtámadja a Satomikat, és az utolsó szálig kiírtják őket. A lány ezután ismeri meg a jóslatot, mely régi tekercseken áll, miszerint a Hikiták az utolsó emberig meglakolnak a bűntettükért. Ahhoz azonban, hogy ez megtörténhessen, neki kell megkeresnie a nyolc szamurájt, akik birtokában különleges kristályok vannak.




      1983. A nyolc szamuráj legendája
      Format : AVI
      Format/Info : Audio Video Interleave
      File size : 1.37 GiB
      Duration : 2h 16mn
      Overall bit rate : 1 439 Kbps
      Writing application : VirtualDubMod 1.5.10.2 (build 2540/release)
      Writing library : VirtualDubMod build 2540/release

      Video
      ID : 0
      Format : MPEG-4 Visual
      Format profile : Advanced Simple@L5
      Format settings, BVOP : 2
      Format settings, QPel : No
      Format settings, GMC : No warppoints
      Format settings, Matrix : Default (H.263)
      Muxing mode : Packed bitstream
      Codec ID : XVID
      Codec ID/Hint : XviD
      Duration : 2h 16mn
      Bit rate : 1 235 Kbps
      Width : 624 pixels
      Height : 336 pixels
      Display aspect ratio : 1.85:1
      Frame rate : 29.970 fps
      Color space : YUV
      Chroma subsampling : 4:2:0
      Bit depth : 8 bits
      Scan type : Progressive
      Compression mode : Lossy
      Bits/(Pixel*Frame) : 0.197
      Stream size : 1.18 GiB (86%)
      Writing library : XviD 64

      Audio
      ID : 1
      Format : AC-3
      Format/Info : Audio Coding 3
      Mode extension : CM (complete main)
      Format settings, Endianness : Big
      Codec ID : 2000
      Duration : 2h 16mn
      Bit rate mode : Constant
      Bit rate : 192 Kbps
      Channel(s) : 2 channels
      Channel positions : Front: L R
      Sampling rate : 48.0 KHz
      Bit depth : 16 bits
      Compression mode : Lossy
      Stream size : 187 MiB (13%)
      Alignment : Split accross interleaves
      Interleave, duration : 33 ms (1.00 video frame)
      Interleave, preload duratio : 500 ms

      Link megtekintéséhez LÉPJ BE vagy REGISZTRÁLJ az oldalra




    • Eddig 3 Felhasználó mondott köszönetet sohajda felhaszlálónak ezért a témáért:

      holya (2016-06-25),Sabres (2016-11-20),volver (2016-03-23)

    • #27
      Status
      Offline
      sohajda's Avatar
      Feltöltő
      Csatlakozott
      13-02-09
      Hozzászólások
      768
      Köszönöm
      23
      2.711 Kapott Köszi 787 Témáért
      A Shogun árnyéka (Shogun iemitsu no ranshin - Gekitotsu, 1989) DVDRip.Hun.
      Szines, szinkr. japán történelmi, akció, dráma




      Stáblista:
      rendező............................Yasuo Furuhata
      forgatókönyvíró.............Sadao Nakajima
      zene........................................Masaru Satô
      producer...........................Shigeru Okada
      vágó.........................................Eifu Tamaki

      Szereplők:
      Masaki Kyômoto.......Tokugawa Iemitsu
      Ippei Shigeyama......................Takechiyo
      Takeshi Maya................Hotta Masatoshi
      Sonny Chiba.......................Iba Shoemon
      Ken Ogata.................................Igo Gyobu
      Norihito Arai..................Koori Deneemon
      Toshihiro Asari.........................Sobue Iori

      Tartalom:
      Iemitsu, a Tokugawak idejének 3. Sógunja utálja idősebb fiát, ezért mindent, amit szeret, fiatalabb fiának ad. Iemitsu le akar számolni idősebb fiával. A Shogun hazarendeli gyűlölt első fiát egy távoli klánból, hogy részt vegyen a férfivá avatás rítusán. A gyermeket elkíséri egy e célra szervezett testőrcsapat, élén hét szamurájjal. Hegyeken, meredek sziklákon és vad patakokon tör előre a hét fantom, minduntalan visszaverve a nyomukban járó rettenthetetlen, szörnyűséges hadsereget. A harc egyre elkeseredettebbé válik.




      1989. A shogun árnyéka
      Format : AVI
      Format/Info : Audio Video Interleave
      File size : 1.37 GiB
      Duration : 1h 51mn
      Overall bit rate : 1 758 Kbps
      Writing application : Nandub v1.0rc2
      Writing library : Nandub build 1853/release

      Video
      ID : 0
      Format : MPEG-4 Visual
      Format profile : Advanced Simple@L5
      Format settings, BVOP : 1
      Format settings, QPel : No
      Format settings, GMC : No warppoints
      Format settings, Matrix : Custom
      Codec ID : XVID
      Codec ID/Hint : XviD
      Duration : 1h 51mn
      Bit rate : 1 301 Kbps
      Width : 656 pixels
      Height : 368 pixels
      Display aspect ratio : 16:9
      Frame rate : 23.976 fps
      Color space : YUV
      Chroma subsampling : 4:2:0
      Bit depth : 8 bits
      Scan type : Progressive
      Compression mode : Lossy
      Bits/(Pixel*Frame) : 0.225
      Stream size : 1.01 GiB (74%)
      Writing library : XviD 1.2.0.dev47 (UTC 2006-11-01)

      Audio
      ID : 1
      Format : AC-3
      Format/Info : Audio Coding 3
      Mode extension : CM (complete main)
      Format settings, Endianness : Big
      Codec ID : 2000
      Duration : 1h 51mn
      Bit rate mode : Constant
      Bit rate : 448 Kbps
      Channel(s) : 6 channels
      Channel positions : Front: L C R, Side: L R, LFE
      Sampling rate : 48.0 KHz
      Bit depth : 16 bits
      Compression mode : Lossy
      Stream size : 357 MiB (25%)
      Alignment : Split accross interleaves
      Interleave, duration : 42 ms (1.00 video frame)
      Interleave, preload duratio : 500 ms

      Link megtekintéséhez LÉPJ BE vagy REGISZTRÁLJ az oldalra




    • #28
      Status
      Offline
      sohajda's Avatar
      Feltöltő
      Csatlakozott
      13-02-09
      Hozzászólások
      768
      Köszönöm
      23
      2.711 Kapott Köszi 787 Témáért
      Shingo tíz párbaja (aka Shingo Juban Shobu,1990) DVDRip.Hunsub.
      Szines, égetett japán kalandfilm




      Stáblista:
      rendezte: Ozu Hitoshi
      forgatókönyv: Suzuki Noribumi

      Szereplők:
      Sanada Hiroyuki
      Ikegami Kimiko
      Chiba Shinichi
      Wakayama Tomisaburo

      Tartalom:
      Shingo, Shogun Yoshimune törvénytelen fia. Yoshimune megszervez egy találkozót anya és fia között. Időközben, Shingo akit ifjúként Bijomaruként ismerték, nekilátott hogy a legjobb kardforgató legyen a földön.
      Valaha sikerülhet találkozniuk az állandó, döbbenetes kardvívások között?




      1990. Shingó tíz párbaja
      Format : AVI
      Format/Info : Audio Video Interleave
      Format profile : OpenDML
      File size : 2.07 GiB
      Duration : 2h 26mn
      Overall bit rate : 2 021 Kbps
      Writing application : MEncoder SVN-r33883(20110719-gcc4.5.2)
      Writing library : MPlayer

      Video
      ID : 0
      Format : MPEG-4 Visual
      Format profile : Advanced Simple@L5
      Format settings, BVOP : 3
      Format settings, QPel : No
      Format settings, GMC : No warppoints
      Format settings, Matrix : Default (H.263)
      Codec ID : XVID
      Codec ID/Hint : XviD
      Duration : 2h 26mn
      Bit rate : 1 880 Kbps
      Width : 720 pixels
      Height : 576 pixels
      Display aspect ratio : 5:4
      Frame rate : 29.970 fps
      Standard : PAL
      Color space : YUV
      Chroma subsampling : 4:2:0
      Bit depth : 8 bits
      Scan type : Progressive
      Compression mode : Lossy
      Bits/(Pixel*Frame) : 0.151
      Stream size : 1.92 GiB (93%)
      Writing library : XviD 1.2.1 (UTC 2008-12-04)

      Audio
      ID : 1
      Format : MPEG Audio
      Format version : Version 1
      Format profile : Layer 3
      Mode : Joint stereo
      Mode extension : MS Stereo
      Codec ID : 55
      Codec ID/Hint : MP3
      Duration : 2h 26mn
      Bit rate mode : Constant
      Bit rate : 128 Kbps
      Channel(s) : 2 channels
      Sampling rate : 44.1 KHz
      Compression mode : Lossy
      Delay relative to video : 33ms
      Stream size : 134 MiB (6%)
      Alignment : Aligned on interleaves
      Interleave, duration : 26 ms (0.78 video frame)
      Interleave, preload duratio : 522 ms
      Writing library : LAME3.98.4

      Link megtekintéséhez LÉPJ BE vagy REGISZTRÁLJ az oldalra




    • A következő felhasználók köszönték meg sohajda hozzászólását

      Sabres (2016-11-20)

    • #29
      Status
      Offline
      sohajda's Avatar
      Feltöltő
      Csatlakozott
      13-02-09
      Hozzászólások
      768
      Köszönöm
      23
      2.711 Kapott Köszi 787 Témáért
      Szamurájok fejedelme (Kabuto, 1992) DVDRip.Hun.
      Szines, szinkr. japán, amerikai, brit, akció, kaland




      Stáblista:
      rendező.....................Gordon Hessler
      forgatókönyvíró..............Shô Kosugi
      operatőr.....................John J. Connor
      vágó......................................Bill Butler

      Szereplők:
      Shô Kosugi............Daigoro Mayeda
      David Essex.....................Don Pedro
      Kane Kosugi......................Yorimune
      Christopher Lee............Fülöp király
      Norman Lloyd.................Vasco atya
      John Rhys-Davies.............El Zaidan
      Polly Walker............................Cecilia

      Tartalom:
      A 17. században Japán két részre szakad. A keleti sereget Tokugawa Ieyasu hadúr vezeti, és hadban állnak a Toyotomi-klánnal, valamint a nyugati sereggel. Bár megnyert nemrég egy csatát, rosszul áll a szénája a keleti haderőnek. Toyotomi seregének modern fegyverek kellenek, ami megfordíthatja a háború kimenetelét. Tokugawa Ieyasu elküldi legmegbecsültebb szamuráját, Mayedát és a fiát, Yourimunét Spanyolországba, hogy vegyenek ötezer muskétát. De a veszélyes úton sokan esküdnek össze ellenük. Mikor végre Spanyolországba érnek, ott semmi sem úgy alakul, ahogy várták.

      1991. Szamurajok fejedelme
      Format : AVI
      Format/Info : Audio Video Interleave
      File size : 976 MiB
      Duration : 1h 41mn
      Overall bit rate : 1 340 Kbps

      Video
      ID : 0
      Format : MPEG-4 Visual
      Format profile : Advanced Simple@L4
      Format settings, BVOP : No
      Format settings, QPel : No
      Format settings, GMC : No warppoints
      Format settings, Matrix : Default (H.263)
      Codec ID : XVID
      Codec ID/Hint : XviD
      Duration : 1h 41mn
      Bit rate : 1 200 Kbps
      Width : 640 pixels
      Height : 480 pixels
      Display aspect ratio : 4:3
      Frame rate : 25.000 fps
      Color space : YUV
      Chroma subsampling : 4:2:0
      Bit depth : 8 bits
      Scan type : Progressive
      Compression mode : Lossy
      Bits/(Pixel*Frame) : 0.156
      Stream size : 873 MiB (90%)
      Writing library : Magic0432

      Audio
      ID : 1
      Format : MPEG Audio
      Format version : Version 1
      Format profile : Layer 3
      Mode : Joint stereo
      Mode extension : MS Stereo
      Codec ID : 55
      Codec ID/Hint : MP3
      Duration : 1h 41mn
      Bit rate mode : Constant
      Bit rate : 128 Kbps
      Channel(s) : 2 channels
      Sampling rate : 44.1 KHz
      Compression mode : Lossy
      Stream size : 93.2 MiB (10%)
      Alignment : Aligned on interleaves
      Interleave, duration : 26 ms (0.65 video frame)
      Writing library : LAME3.97

      Link megtekintéséhez LÉPJ BE vagy REGISZTRÁLJ az oldalra




    • A következő felhasználók köszönték meg sohajda hozzászólását

      holya (2016-06-25)

    • #30
      Status
      Offline
      sohajda's Avatar
      Feltöltő
      Csatlakozott
      13-02-09
      Hozzászólások
      768
      Köszönöm
      23
      2.711 Kapott Köszi 787 Témáért
      Tabu (Gohatto, 1999) DVDRip.Hunsub.
      Szines, , japán, francia, brit dráma




      Stáblista:
      rendező..........................Nagisa Oshima
      író......................................Ryotaro Shiba
      forgatókönyvíró...........Nagisa Oshima
      operatőr.....................Toyomichi Kurita
      jelmeztervező.........................Emi Wada
      producer..............Shigehiro Nakagawa
      vágó.............................Tomoyo Oshima

      Szereplők:
      Takeshi Kitano..........Toshizo Hijikata, kapitány
      Yoichi Sai...................Isami Kondo, parancsnok
      Tadanobu Asano.......Hyozo Tashiro, szamuráj
      Shinji Takeda..........................................So ji Okita
      Ryuhei Matsuda.......Sozaburo Kano, szamuráj
      Tommies Masa.................................Jo Yamazaki
      Matoba Koji................Heibei Sugano, szamuráj

      Tartalom:
      A történet 1865 tavaszán játszódik Kiotóban. A Shinsengumi gárda olyan újoncokat toboroz, akikből szamuráj harcosokat nevelnek. Csak a legjobbak kerülhetnek be a gárdába, ezért minden jelentkezőnek meg kell küzdenie Soji Okitával (Shinji Takeda), a gárda legkiválóbb harcosával. Isami Kondo parancsnok (Yoichi Sai) és Toshizo Hijikata felügyelik a toborzást. Csak Hyozo Tashiro (Tadanobu Asano) és a jóképű, lányosan finom megjelenésű Sozaburo Kano (Ryuhei Matsuda) kerül kiválasztásra. Sozaburu szépsége egyaránt lenyűgözi kiképző parancsnokát, Hijikatát, és rivális újonctársát Kanot. A rendező határozottan, de végtelen finomsággal sejteti a férfiak egymás iránt gerjesztett szenvedélyét.
      A film egyik különlegessége, hogy a halált és a homoszexualitást meghitt kapcsolatban ábrázolja. Lenyűgöző képek, lélegzetelállító koreográfia, szerelmek, vágyak, gyötrelmek, küzdelmek, végzetes féltékenység, egyszóval: Gohatto, vagyis Tabu.




      1999. Tabu
      Format : AVI
      Format/Info : Audio Video Interleave
      File size : 1.49 GiB
      Duration : 1h 36mn
      Overall bit rate : 2 204 Kbps

      Video
      ID : 0
      Format : MPEG-4 Visual
      Format profile : Simple@L3
      Format settings, BVOP : No
      Format settings, QPel : No
      Format settings, GMC : No warppoints
      Format settings, Matrix : Default (H.263)
      Codec ID : XVID
      Codec ID/Hint : XviD
      Duration : 1h 36mn
      Source duration : 1h 36mn
      Bit rate : 2 000 Kbps
      Width : 656 pixels
      Height : 480 pixels
      Display aspect ratio : 16:10
      Frame rate : 29.970 fps
      Color space : YUV
      Chroma subsampling : 4:2:0
      Bit depth : 8 bits
      Scan type : Progressive
      Compression mode : Lossy
      Bits/(Pixel*Frame) : 0.212
      Stream size : 1.35 GiB (91%)
      Writing library : XviD 1.1.2 (UTC 2006-11-01)

      Audio
      ID : 1
      Format : AC-3
      Format/Info : Audio Coding 3
      Mode extension : CM (complete main)
      Format settings, Endianness : Big
      Codec ID : 2000
      Duration : 1h 36mn
      Source duration : 1h 36mn
      Bit rate mode : Constant
      Bit rate : 192 Kbps
      Channel(s) : 2 channels
      Channel positions : Front: L R
      Sampling rate : 48.0 KHz
      Bit depth : 16 bits
      Compression mode : Lossy
      Stream size : 133 MiB (9%)
      Alignment : Aligned on interleaves
      Interleave, duration : 32 ms (0.96 video frame)

      Link megtekintéséhez LÉPJ BE vagy REGISZTRÁLJ az oldalra




    • Eddig 2 Felhasználó mondott köszönetet sohajda felhaszlálónak ezért a témáért:

      holya (2016-06-25),juveaxel (2016-12-23)

     

     
    Page 3 of 7 FirstFirst 12345 ... LastLast

    A Téma cimkéi

    Jogosultságok

    • Nem nyithatsz Új Témát
    • Nem válaszolhatsz a Témában
    • Nem csatolhatsz állományt
    • Nem szerkesztheted a Hozzászólásaid
    •