Results 1 to 1 of 1
  1. #1
    Status
    Offline
    bubus66's Avatar
    Szuper Feltöltő
    Csatlakozott
    13-11-29
    Hozzászólások
    957
    Halott Témáim
    Igen, Törölhető
    Köszönöm
    14
    4.774 Kapott Köszi 978 Témáért

    Izomagyak (Pain & Gain) 2013 BDRip-mkv

    Izomagyak (Pain & Gain) 2013 BDRip-mkv
    színes, magyarul beszélő, amerikai akciófilm, 129 perc,(16)





    rendező: Michael Bay
    forgatókönyvíró: Christopher Markus, Stephen McFeely, Pete Collins
    zeneszerző: Steve Jablonsky
    operatőr: Ben Seresin
    producer: Michael Bay, Ian Bryce, Donald De Line
    vágó: Joel Negron

    szereplő(k):
    Mark Wahlberg (Daniel Lugo)
    Dwayne "The Rock" Johnson (Paul Doyle)
    Anthony Mackie (Adrian Doorbal)
    Ed Harris (Ed Du Bois)
    Tony Shalhoub (Victor Kershaw)
    Bar Paly (Sorina Luminita)
    Keili Lefkovitz (Krisztina Furton)
    Ken Jeong (Johnny Wu)
    Rebel Wilson (Ramona Eldridge)

    szinkronhang:
    Csőre Gábor (Daniel Lugo magyar hangja)
    Galambos Péter (Paul Doyle magyar hangja)
    Zámbori Soma (Adrian Doorbal magyar hangja)
    Epres Attila (Ed Du Bois magyar hangja)
    Háda János (Victor Kershaw magyar hangja)
    Fodor Annamária (Sorina Luminita magyar hangja)
    Józsa Imre (Johnny Wu magyar hangja)
    Pokorny Lia (Krisztina Furton magyar hangja)

    Miami, 1994. Daniel Lugo a sittről szabadul. Az ambiciózus testépítő továbbra is az amerikai álmot kergeti, sok pénzről, léha életről és a jó nőkről álmodik. Egészen pontosan nemcsak álmodik, hanem úgy dönt, hogy megszerzi. Ráveszi a két ugyancsak testépítő haverját, a sok sztereoidtól impotensé vált Adriant és a szintén most szabadult kokainfüggő, és vallásos lett Pault, hogy váltságdíj reményében raboljanak el egy üzletembert. Az akció azonban iszonyatosan rosszul sül el.
    General
    Unique ID : 233311753803901558973543308215733009646 (0xAF863594DF0479EC8EBC122FA7253CEE)
    Complete name : izom.a.mkv
    Format : Matroska
    Format version : Version 4 / Version 2
    File size : 1.71 GiB
    Duration : 2h 9mn
    Overall bit rate : 1 889 Kbps
    Encoded date : UTC 2013-12-05 08:01:27
    Writing application : mkvmerge v6.2.0 ('Promised Land') built on Apr 28 2013 12:22:01
    Writing library : libebml v1.3.0 + libmatroska v1.4.0

    Video
    ID : 1
    Format : AVC
    Format/Info : Advanced Video Codec
    Format profile : High@L4.1
    Format settings, CABAC : Yes
    Format settings, ReFrames : 16 frames
    Codec ID : V_MPEG4/ISO/AVC
    Duration : 2h 9mn
    Bit rate : 1 211 Kbps
    Width : 720 pixels
    Height : 300 pixels
    Display aspect ratio : 2.40:1
    Frame rate mode : Constant
    Frame rate : 23.976 fps
    Color space : YUV
    Chroma subsampling : 4:2:0
    Bit depth : 8 bits
    Scan type : Progressive
    Bits/(Pixel*Frame) : 0.234
    Stream size : 1.10 GiB (64%)
    Writing library : x264
    Language : Hungarian
    Default : Yes
    Forced : No
    Color range : Limited
    Matrix coefficients : BT.709

    Audio
    ID : 2
    Format : AC-3
    Format/Info : Audio Coding 3
    Mode extension : CM (complete main)
    Format settings, Endianness : Big
    Codec ID : A_AC3
    Duration : 2h 9mn
    Bit rate mode : Constant
    Bit rate : 640 Kbps
    Channel(s) : 6 channels
    Channel positions : Front: L C R, Side: L R, LFE
    Sampling rate : 48.0 KHz
    Compression mode : Lossy
    Stream size : 593 MiB (34%)
    Language : Hungarian
    Default : Yes
    Forced : No

    Text #1
    ID : 3
    Format : UTF-8
    Codec ID : S_TEXT/UTF8
    Codec ID/Info : UTF-8 Plain Text
    Title : Forced
    Language : Hungarian
    Default : Yes
    Forced : No

    Text #2
    ID : 4
    Format : UTF-8
    Codec ID : S_TEXT/UTF8
    Codec ID/Info : UTF-8 Plain Text
    Language : Hungarian
    Default : No
    Forced : No


    Code: 

    Link megtekintéséhez LÉPJ BE vagy REGISZTRÁLJ az oldalra


    Code: 

    Link megtekintéséhez LÉPJ BE vagy REGISZTRÁLJ az oldalra

    http://data.hu/get/9193125/izom.a.mkv.zip


    Hasonló témák:

  2. Eddig 2 Felhasználó mondott köszönetet bubus66 felhaszlálónak ezért a témáért:

    nbarna76 (2016-08-14),Téklesz Zoltán (2019-07-09)

 

 

Jogosultságok

  • Nem nyithatsz Új Témát
  • Nem válaszolhatsz a Témában
  • Nem csatolhatsz állományt
  • Nem szerkesztheted a Hozzászólásaid
  •