Results 1 to 1 of 1
  1. #1
    Status
    Offline
    schiesstomi's Avatar
    Szuper Feltöltő
    Csatlakozott
    13-05-12
    Hozzászólások
    1.065
    Halott Témáim
    Igen, Törölhető
    Köszönöm
    0
    4.287 Kapott Köszi 1.187 Témáért
    Bejegyzések
    2

    Scooby-doo és a Koboldkirály




    Színes, magyarul beszélő, amerikai animációs film, 75 perc, 2008

    rendező: Joe Sichta
    forgatókönyvíró: Joe Sichta
    zeneszerző: Thomas Chase
    producer: Joe Sichta
    vágó: Joe Gall

    szereplő(k):
    Frank Welker (Scooby-Doo / Fred Jones hangja)
    Tim Curry (Koboldkirály hangja)
    Lauren Bacall
    James Belushi
    Mindy Cohn

    Micsoda kínos helyzet! Krudsky, a csaló bűvész ellopja Fűzfa tündérhercegnő varázserejét! Scooby-Doo-nak és Bozontnak meg kell állítani a tolvajt, különben mindenki rémséges halloween-szörnnyé változik. Hőseink felkerekednek a Zord Kaszás vasútvonalon és Halloweenföld fantasztikus világa felé veszik az irányt, hogy még éjfél előtt megszerezzék a Koboldkirály mágikus jogarát. Útközben találkoznak a hírhedt Fejnélküli Lovassal, a segítőkész Töklámpás Jackkel és egy ficánkoló seprűvel, ami még a túlvilágra is elrepíti őket.

    General
    Format : AVI
    Format/Info : Audio Video Interleave
    File size : 1.07 GiB
    Duration : 1h 11mn
    Overall bit rate : 2 145 Kbps
    Writing application : VirtualDubMod 1.5.4.1 (build 2178/release)
    Writing library : VirtualDubMod build 2178/release

    Video
    ID : 0
    Format : MPEG-4 Visual
    Format profile : Advanced Simple@L5
    Format settings, BVOP : 1
    Format settings, QPel : No
    Format settings, GMC : No warppoints
    Format settings, Matrix : Default (MPEG)
    Muxing mode : Packed bitstream
    Codec ID : XVID
    Codec ID/Hint : XviD
    Duration : 1h 11mn
    Bit rate : 1 752 Kbps
    Width : 656 pixels
    Height : 464 pixels
    Display aspect ratio : 1.414
    Frame rate : 25.000 fps
    Color space : YUV
    Chroma subsampling : 4:2:0
    Bit depth : 8 bits
    Scan type : Progressive
    Compression mode : Lossy
    Bits/(Pixel*Frame) : 0.230
    Stream size : 892 MiB (82%)
    Writing library : XviD 1.2.0.dev47 (UTC 2006-11-01)

    Audio
    ID : 1
    Format : AC-3
    Format/Info : Audio Coding 3
    Mode extension : CM (complete main)
    Codec ID : 2000
    Duration : 1h 11mn
    Bit rate mode : Constant
    Bit rate : 384 Kbps
    Channel(s) : 6 channels
    Channel positions : Front: L C R, Side: L R, LFE
    Sampling rate : 48.0 KHz
    Bit depth : 16 bits
    Compression mode : Lossy
    Stream size : 196 MiB (18%)
    Alignment : Split accross interleaves
    Interleave, duration : 40 ms (1.00 video frame)
    Interleave, preload duration : 500 ms


    Code: 

    Link megtekintéséhez LÉPJ BE vagy REGISZTRÁLJ az oldalra

    Code: 

    Link megtekintéséhez LÉPJ BE vagy REGISZTRÁLJ az oldalra



    Hasonló témák:
    Last edited by Táltos pelus; 2014-02-08 at 17:12. Indok: Halott link törölve

  2. Eddig 5 Felhasználó mondott köszönetet schiesstomi felhaszlálónak ezért a témáért:

    helgab (2015-06-24),Horsehead (2015-04-06),keri02 (2015-02-24),Legatar (2013-11-05),talléros (2014-11-06)

 

 

Jogosultságok

  • Nem nyithatsz Új Témát
  • Nem válaszolhatsz a Témában
  • Nem csatolhatsz állományt
  • Nem szerkesztheted a Hozzászólásaid
  •