Results 1 to 5 of 5
  1. #1
    Status
    Offline
    dzsindzsi20's Avatar
    Regisztrált tag
    Csatlakozott
    13-04-29
    Hozzászólások
    29
    Halott Témáim
    Igen, Törölhető
    Köszönöm
    1.267
    37 Kapott Köszi 13 Témáért

    Milyen 4k-s tv-t es/vagy lejatszot hasznalsz sajat sorozatok es filmek lejatszasara?

    Udv forumtarsak!

    Akiket csak a lenyeg erdekel:

    Arra kernek mindenkit, akinek kedve es ideje van, ossza meg velem, hogy milyen 4k-s tv-t es/vagy lejatszot hasznal a sajat sorozatok es filmek lejatszasara. A regi tv-m, haldoklik (egy kis feher folt jelent meg a kepernyo kozepen), sajnos ujat kell vennem. Rengeteg tv-nek olvastam utana es rengeteg tesztet olvastam, ezen ismereteket bovitenem a ti tapasztalataitokkal.


    Akiket a hosszabb verzio is erdekel:

    A sorozatokat es filmeket errol jatszom le, Sony BDV-E2100 (5.1 csatornás, 800W-os), ami mindent lejatszik, kiveve a hevc 4k uhd, ezert azt a tv-vel. A tv-m egy Samsung 55" KU6000 PurColour UHD 4K Smart TV, ami helyett ujat keresek. Az uj tv, amit kineztem es aminek utana olvastam egy Samsung 55" AU9005 Crystal UHD 4K Smart TV, amit ki is probaltam az uzletben, mert vittem az usb-t rajta a demo filmekkel (avi-tol a hevc-ig - 4k-ig, mp3-tol a dts-ig). Ekkor jott a dobbenet, mert nem jatszotta le az avi-t es a dts-t sem! Naivan azt gondoltam, hogy ha az en tv-m lejatsza, akkor az ujabb es modernebb, szebb es jobb is lejatsza. Emellett a kepe nagyon rossz volt es a hangja 100-on is halk. Aztan az elado mondta, hogy az en 2016-os samsung tv-m volt az utolso, ami lejatszotta az avi-t es a dts-t.. koszi samsung. Aztan ott helyben kiprobaltam tobb tv-t is.

    Samsung 55” QN95A Neo QLED 4K HDR Smart: avi-t es a dts-t ez sem jatszotta le.
    LG 65" Nano866PA 4K NanoCell TV pure colours 4K Ultra HD: avi-t lejatszotta, de a dts hangot nem es nem volt olyan szepen meggyozo kep.
    LG 55" CX6LA 4K Ultra HD Smart OLED TV: avi-t lejatszotta, de a dts hangot nem es a 4k filmet, amit vittem szemcses volt, rossz volt nezni.

    Mivel az eladok rendesek voltak velem nem eltem vissza bizalmukkal es nem "dugtam" meg az usb-vel minden tv-t, gondoltam majd otthon jobban utana nezek.. ezert kerek toletek infot.
    Mas forumokon is olvastam teszteket, ki mit hasznal, itt is kivancsi vagyok.
    Udv..

    Utoirat:

    nem azert kerek infot, mert nem tudok valasztani vagy nem ertek hozza, sokat olvastam a temaban, hanem mert igy konnyebb lenne talan, mert hiaba irja a teszt x tv-rol, hogy bomba, ha mikor bedugom az usb-t a filmet nem vagy nem szepen jatsza le vagy nincs hang vagy halk.. minden tv-t nem probalhatok ki

    ezert kerlek az ilyen hsz-t ne, hogy attol fugg mennyi penzed van vagy milyen kepernyot akarsz vagy stb.. tudom mit akarok, azt a tv-t, ami lejatsza az avi-t es a hevc-et, az mp3-at es a dts-t es szep a kepe, azoknal a filmeknel is amiket innen a forumrol toltok le de ha minden kotel szakad a minimum elvaras az, hogy a 4k filmeket ugy jatsza le mint a mostani samsung tv-m, ami 2016-os!



    Teszt videok:


    1.,
    Video:
    ID : 0
    Format : MPEG-4 Visual
    Format settings : BVOP1
    Format settings, BVOP : 1
    Format settings, QPel : No
    Format settings, GMC : No warppoints
    Format settings, Matrix : Default (H.263)
    Muxing mode : Packed bitstream
    Codec ID : DX50
    Codec ID/Hint : DivX 5
    Duration : 1 h 27 min
    Bit rate : 1 326 kb/s
    Nominal bit rate : 6 951 kb/s
    Width : 704 pixels
    Height : 384 pixels
    Display aspect ratio : 1.85:1
    Frame rate : 25.000 FPS
    Color space : YUV
    Chroma subsampling : 4:2:0
    Bit depth : 8 bits
    Scan type : Progressive
    Compression mode : Lossy
    Bits/(Pixel*Frame) : 0.196
    Stream size : 832 MiB (59%)
    Writing library : DivX 5.2.1 (WaffleDay) (UTC 2004-09-08)

    Audio:
    ID : 1
    Format : AC-3
    Format/Info : Audio Coding 3
    Commercial name : Dolby Digital
    Codec ID : 2000
    Duration : 1 h 27 min
    Bit rate mode : Constant
    Bit rate : 448 kb/s
    Channel(s) : 6 channels
    Channel layout : L R C LFE Ls Rs
    Sampling rate : 48.0 kHz
    Frame rate : 31.250 FPS (1536 SPF)
    Compression mode : Lossy
    Delay relative to video : 1 s 648 ms
    Stream size : 281 MiB (20%)
    Alignment : Split across interleaves
    Interleave, duration : 40 ms (1.00 video frame)
    Interleave, preload duratio : 500 ms
    Service kind : Complete Main


    2.,
    Video:
    ID : 1
    Format : AVC
    Format/Info : Advanced Video Codec
    Format profile : High@L4.1
    Format settings : CABAC / 5 Ref Frames
    Format settings, CABAC : Yes
    Format settings, Reference : 5 frames
    Codec ID : V_MPEG4/ISO/AVC
    Duration : 1 h 35 min
    Bit rate : 17.0 Mb/s
    Width : 1 920 pixels
    Height : 800 pixels
    Display aspect ratio : 2.40:1
    Frame rate mode : Constant
    Frame rate : 23.976 (24000/1001) FPS
    Color space : YUV
    Chroma subsampling : 4:2:0
    Bit depth : 8 bits
    Scan type : Progressive
    Bits/(Pixel*Frame) : 0.463
    Stream size : 11.4 GiB (92%)
    Writing library : x264 core 148 r2638 7599210
    Encoding settings : cabac=1 / ref=5 / deblock=1:-3:-3 / analyse=0x3:0x133 / me=umh / subme=10 / psy=1 / psy_rd=0.92:0.00 / mixed_ref=1 / me_range=24 / chroma_me=1 / trellis=2 / 8x8dct=1 / cqm=0 / deadzone=21,11 / fast_pskip=0 / chroma_qp_offset=-2 / threads=12 / lookahead_threads=2 / sliced_threads=0 / nr=0 / decimate=0 / interlaced=0 / bluray_compat=0 / constrained_intra=0 / bframes=9 / b_pyramid=2 / b_adapt=2 / b_bias=0 / direct=3 / weightb=1 / open_gop=0 / weightp=2 / keyint=250 / keyint_min=23 / scenecut=40 / intra_refresh=0 / rc_lookahead=60 / rc=crf / mbtree=0 / crf=17.4 / qcomp=0.70 / qpmin=0 / qpmax=69 / qpstep=4 / vbv_maxrate=62500 / vbv_bufsize=78125 / crf_max=0.0 / nal_hrd=none / filler=0 / ip_ratio=1.30 / pb_ratio=1.20 / aq=3:0.83
    Language : English
    Default : Yes
    Forced : No
    Color range : Limited
    Matrix coefficients : BT.709

    Audio:
    ID : 2
    Format : DTS
    Format/Info : Digital Theater Systems
    Codec ID : A_DTS
    Duration : 1 h 35 min
    Bit rate mode : Constant
    Bit rate : 1 509 kb/s
    Channel(s) : 6 channels
    Channel layout : C L R Ls Rs LFE
    Sampling rate : 48.0 kHz
    Frame rate : 93.750 FPS (512 SPF)
    Bit depth : 24 bits
    Compression mode : Lossy
    Stream size : 1.01 GiB (8%)
    Language : Hungarian
    Default : No
    Forced : No


    3.,
    Video:
    ID : 1
    Format : HEVC
    Format/Info : High Efficiency Video Coding
    Format profile : Main 10@L4@Main
    Codec ID : V_MPEGH/ISO/HEVC
    Duration : 2 h 4 min
    Bit rate : 4 177 kb/s
    Width : 1 920 pixels
    Height : 1 080 pixels
    Display aspect ratio : 16:9
    Frame rate mode : Constant
    Frame rate : 23.976 (24000/1001) FPS
    Color space : YUV
    Chroma subsampling : 4:2:0
    Bit depth : 10 bits
    Bits/(Pixel*Frame) : 0.084
    Stream size : 3.62 GiB (90%)
    Language : English
    Default : Yes
    Forced : No
    Color range : Limited
    Color primaries : BT.709
    Transfer characteristics : BT.709
    Matrix coefficients : BT.709

    Audio.
    ID : 2
    Format : AC-3
    Format/Info : Audio Coding 3
    Commercial name : Dolby Digital
    Codec ID : A_AC3
    Duration : 2 h 4 min
    Bit rate mode : Constant
    Bit rate : 448 kb/s
    Channel(s) : 6 channels
    Channel layout : L R C LFE Ls Rs
    Sampling rate : 48.0 kHz
    Frame rate : 31.250 FPS (1536 SPF)
    Compression mode : Lossy
    Stream size : 397 MiB (10%)
    Language : Hungarian
    Service kind : Complete Main
    Default : Yes
    Forced : No


    4.,
    Video
    ID : 1
    Format : HEVC
    Format/Info : High Efficiency Video Coding
    Format profile : Main 10@L5.1@High
    HDR format : SMPTE ST 2086, HDR10 compatible
    Codec ID : V_MPEGH/ISO/HEVC
    Duration : 2 h 0 min
    Bit rate : 10.7 Mb/s
    Width : 3 840 pixels
    Height : 2 160 pixels
    Display aspect ratio : 16:9
    Frame rate mode : Constant
    Frame rate : 23.976 (24000/1001) FPS
    Color space : YUV
    Chroma subsampling : 4:2:0 (Type 2)
    Bit depth : 10 bits
    Bits/(Pixel*Frame) : 0.054
    Stream size : 8.96 GiB (96%)
    Language : Hungarian
    Default : Yes
    Forced : No
    Color range : Limited
    Color primaries : BT.2020
    Transfer characteristics : PQ
    Matrix coefficients : BT.2020 non-constant
    Mastering display color pri : Display P3
    Mastering display luminance : min: 0.0050 cd/m2, max: 4000 cd/m2
    Maximum Content Light Level : 9918 cd/m2
    Maximum Frame-Average Light : 3241 cd/m2

    Audio
    ID : 2
    Format : AC-3
    Format/Info : Audio Coding 3
    Commercial name : Dolby Digital
    Codec ID : A_AC3
    Duration : 2 h 0 min
    Bit rate mode : Constant
    Bit rate : 448 kb/s
    Channel(s) : 6 channels
    Channel layout : L R C LFE Ls Rs
    Sampling rate : 48.0 kHz
    Frame rate : 31.250 FPS (1536 SPF)
    Compression mode : Lossy
    Delay relative to video : 24 ms
    Stream size : 386 MiB (4%)
    Language : Hungarian
    Service kind : Complete Main
    Default : Yes
    Forced : No

    Hasonló témák:

    • A következő felhasználók köszönték meg dzsindzsi20 hozzászólását

      Data_admin (2021-07-17)

    • #2
      Status
      Offline
      macilaci41's Avatar
      Szuper Feltöltő
      Csatlakozott
      14-09-26
      Hozzászólások
      591
      Halott Témáim
      Nem, Újraélesztem
      Köszönöm
      444
      37.659 Kapott Köszi 580 Témáért
      Szia!

      Én ezt a tévét ajánlom, van nagyobb méret is. https://www.electrovision.hu/LG-OLED...HDR-Smart-OLED


    • A következő felhasználók köszönték meg macilaci41 hozzászólását

      dzsindzsi20 (2021-07-15)

    • #3
      Status
      Offline
      black13's Avatar
      Feltöltő
      Csatlakozott
      20-01-22
      Hozzászólások
      321
      Halott Témáim
      Igen, Törölhető
      Köszönöm
      21
      11.427 Kapott Köszi 315 Témáért
      Nekem ilyen van nekem tökéletes! https://www.emag.hu/lg-smart-led-tel.../pd/D14V96BBM/


    • A következő felhasználók köszönték meg black13 hozzászólását

      dzsindzsi20 (2021-07-15)

    • #4
      Status
      Offline
      Data_admin's Avatar
      Adminisztrátor
      Csatlakozott
      13-01-25
      Hozzászólások
      464
      Halott Témáim
      Igen, Törölhető
      Köszönöm
      270
      785 Kapott Köszi 327 Témáért
      Sziasztok!

      Érdekes téma...... Samsung tv-m van. Valami uhd smart izés.....
      A kompatibilitási problémákat HDMI kábellel oldottam meg.
      Van benne wifi, de nem az erőssége.... a 720p filmek is el akadoztak, az 1080p meg esélytelen volt megnézni
      Szóval.... HDMI kábel..... és kész
      (meg egy jó gép )

      Lehet, hogy nem ilyen választ vártál...... de ez csak egy tipp ami nálam működik
      Így az egyetlen dolog amire figyelni kell a vásárlásnál..... az az, hogy valóban szép legyen a kijelző. Ebben pedig a Samsung első helyen van.


      Majd írd meg melyik lett a befutó.....


    • Eddig 2 Felhasználó mondott köszönetet Data_admin felhasználónak ezért a témáért:

      dzsindzsi20 (2021-07-17),hasznosimre (2021-07-18)

    • #5
      Status
      Offline
      hasznosimre's Avatar
      Szerkesztő
      Csatlakozott
      14-09-14
      Hozzászólások
      28.430
      Halott Témáim
      Nem, Újraélesztem
      Köszönöm
      30.813
      2.899 Kapott Köszi 1.806 Témáért
      Szia.
      Nem vagy könnyű helyzetben.
      Van egy pár technológia ami versenyzik egymással.
      Nem biztos,hogy a méret a lényeg,ha csak nem olyanok a körülményeid.
      Csodák nincsenek,mert miután megérkezik a tv és megnézed az első lineáris adást bizony lehet némi csalódás.
      A tartalom más forrásból, az attól függ honnét van.
      Minimum 5 év az amit előre kéne látni.
      Jó ha a kiválasztott fel van vértezve:Wi-Fi 6,bluetooth 5.2,usb-c,hdmi portok 2.1/ez képes a 4k/120fps-re/,lan-csatlakozó/ cat 7 kábel/,a hdr szabványok/dolby vision és br/,hlg.
      A legtöbb gyártónak van ilyen tv-je,a panelok lcd/va,ips/él világítás,q,nq,oled/ a hanggal majd mindegyik bajlódik mert hát elég vékonyak így ajánlott a kiegészítő hangosítás optikai kábelen keresztül ami ismeri a legelterjedtebb szabványokat és rendelkezik hdmi,usb,bluetooth kiegészítőkkel is/ , a nem régen megérkezettek között is.
      Az LG a legnagyobb és legösszetettebb gyártó, szállítja a többiek részére is a panelokat,aztán azok bűvészkednek különböző megoldásokkal.
      A Samsung is ott van,de egy kicsivel másfelé is néz.
      Konkrét márkát így nehéz ajánlani.
      Meglátásom szerint nem a szívre kell hallgatni,ha nem az adatokra és a tesztekre,attól függően.... aztán a szemed és a füled fogja eldönteni,hogy a fent említett összetevőkkel rendelkező kiválasztott megfelel-e az igényeidnek.


      Constellation


    • Eddig 4 Felhasználó mondott köszönetet hasznosimre felhasználónak ezért a témáért:

      ceanka (2021-07-25),Data_admin (2021-07-18),dzsindzsi20 (2021-07-19),Misi69 (2021-07-20)

     

     

    Jogosultságok

    • Nem nyithatsz Új Témát
    • Nem válaszolhatsz a Témában
    • Nem csatolhatsz állományt
    • Nem szerkesztheted a Hozzászólásaid
    •