Results 1 to 1 of 1
  1. #1
    Status
    Offline
    macilaci41's Avatar
    Feltöltő
    Csatlakozott
    14-09-26
    Hozzászólások
    395
    Halott Témáim
    Nem, Újraélesztem
    Köszönöm
    296
    21.162 Kapott Köszi 370 Témáért

    1080 Deep Impact/1998 H265-1080p Hundub Engdub Hunsub


    Amerikai katasztrófa film, 119 perc, 1998

    Történet
    Virginia: Jenny és Leo az égboltot kémlelik. Felfedeznek valamit, amit egy Arizonai csillagvizsgálóban is megerősítenek. Egy üstököst, amit Leo családnevéről Beidermannak neveznek el. A felfedezés sokáig nem tudódik ki, míg egy nap a sajtó részéről Jenny Lerner meg nem neszeli a dolgot, és bejelentésre nem kényszeríti magát, az Egyesült Államok elnökét. Az üstökös ugyanis nagyon nagy veszélyt jelent a Földre és az egész emberiségre. A 7 mérföldes, 500 milliárd tonnás Beidermant még a világűrben kell megsemmisíteni, más lehetőség nincsen. A kormány E.L.E névre kereszteli a titkos programot, melynek során egy amerikai és orosz tudósokból álló legénység elindul a Messiás nevű űrhajón, hogy atomtölteteivel felrobbantsa az üstököst.

    Stáblista:
    Szereplők
    Robert Duvall
    Spurgeon Tanner
    Téa Leoni
    Jenny Lerner
    Morgan Freeman
    Beck Elnök
    Elijah Wood
    Leo Beiderman
    Vanessa Redgrave
    Robin Lerner
    Maximilian Schell
    Jason Lerner
    Leelee Sobieski
    Sarah Hotchner
    James Cromwell
    Alan Rittenhouse
    Mary McCormack
    Andrea Baker
    Ron Eldard
    Oren Monash
    Blair Underwood
    Mark Simon
    Dougray Scott
    Eric Vennekor
    Jon Favreau
    Gus Partenza
    Alexander Balujev
    Mikhail Tulchinsky

    Videoinformációk

    Video
    ID : 1
    Format : HEVC
    Format/Info : High Efficiency Video Coding
    Duration : 2 h 1 min
    Bit rate : 6 283 kb/s
    Width : 1 920 pixels
    Height : 1 080 pixels
    Display aspect ratio : 16:9
    Frame rate : 23.976 (24000/1001) FPS
    Chroma subsampling : 4:2:0
    Bit depth : 10 bits
    Language : English
    Default : Yes
    Audio #1
    ID : 2
    Format : AC-3
    Commercial name : Dolby Digital
    Duration : 2 h 0 min
    Bit rate : 192 kb/s
    Channel(s) : 2 channels
    Channel layout : L R
    Sampling rate : 48.0 kHz
    Frame rate : 31.250 FPS (1536 SPF)
    Stream size : 166 MiB (2%)
    Language : Hungarian
    Service kind : Complete Main
    Default : Yes
    Audio #2
    ID : 3
    Format : MLP FBA
    Format/Info : Meridian Lossless Packing FBA
    Commercial name : Dolby TrueHD
    Duration : 2 h 1 min
    Bit rate : 3 962 kb/s
    Maximum bit rate : 5 544 kb/s
    Channel(s) : 6 channels
    Channel layout : L R C LFE Ls Rs
    Sampling rate : 48.0 kHz
    Frame rate : 1 200.000 FPS (40 SPF)
    Stream size : 3.35 GiB (38%)
    Language : English
    Text #1
    ID : 4
    Format : UTF-8
    Duration : 1 h 29 min
    Language : Hungarian
    Default : Yes
    Text #2
    ID : 5
    Format : UTF-8
    Duration : 1 h 51 min
    Language : Hungarian
    Sample & letöltés

    **Rejtett tartalom: Klikkelj a Köszönöm gombra, ha szeretnéd látni**


    Hasonló témák:

  2. Eddig 38 Felhasználó mondott köszönetet macilaci41 felhaszlálónak ezért a témáért:

    acsat (2020-06-30),andarov (Tegnap),arno (Tegnap),atariste (Tegnap),Atitati46 (2020-06-30),bettyprides (2020-06-30),bkaresz (2020-06-30),Bogeecy (Ma),bugaci (Tegnap),Csillagjáró (Tegnap),detterw9 (2020-06-30),dexter2004 (2020-06-30),dload (2020-06-30),dzsindzsi20 (Tegnap),EasyRyder (Tegnap),feher0604 (Tegnap),fred76 (Tegnap),ganita (Tegnap),hasznosimre (Tegnap),ingod (Tegnap),jaszkapitany (Tegnap),Kami (Tegnap),Kampeca (Ma),knjaz (2020-06-30),lamolna78 (2020-06-30),marmegint (Tegnap),marmi (2020-06-30),marschmrk (Tegnap),mikulas1111 (Tegnap),Misi69 (Tegnap),molnarr75 (Tegnap),novela2009 (Tegnap),Panka80 (Tegnap),sturmovik (2020-06-30),sztruhiz (Tegnap),Theon (Tegnap),wyly (Tegnap),ximenész (Tegnap)

 

 

Jogosultságok

  • Nem nyithatsz Új Témát
  • Nem válaszolhatsz a Témában
  • Nem csatolhatsz állományt
  • Nem szerkesztheted a Hozzászólásaid
  •