Results 1 to 1 of 1
  1. #1
    Status
    Offline
    stone's Avatar
    Feltöltő
    Csatlakozott
    13-12-22
    Hozzászólások
    765
    Halott Témáim
    Igen, Törölhető
    Köszönöm
    297
    14.189 Kapott Köszi 893 Témáért

    720 Jett / Daisy 2019.720p.WEBRip.x265 T évad

    Jett / Daisy 2019.720p.WEBRip.x265 T évad
    , amerikai filmsorozat, 60 perc, 300 Mb/rész




    hevc_265_hu_2.jpg

    A börtönből frissen szabadult, profi tolvaj, Daisy (becenevén: Jett) Kowalski (Carla Guggino) gyermeke születése után visszavonult, most azonban kénytelen visszatérni ahhoz,
    amihez a legjobban ért. Miután éppen csak sikerült végrehajtania egy veszélyes “utolsó” melót, könyörtelen, Jett képességeit saját céljaikra felhasználó bűnözők nyomására el kell vállalnia további megbízásokat is.
    A Cinemax drámasorozatának kilencrészes évadának főszerepében Carla Gugino (Törésvonal,*Sin City,*Kémkölykök-trilógia) látható, aki executive producerként is közreműködött a sorozat létrejöttében.
    A Jett-ben szerepel továbbá Giancarlo Esposito (Better Call Saul, Totál szívás – amelyért Emmy-díjra is jelölték) a nagy hatalmú bűnöző, Charlie Baudelaire szerepében.

    RENDEZŐ: Sebastian Gutierrez
    FORGATÓKÖNYVÍRÓ: Sebastian Gutierrez
    ZENE: Hans Hafner, Johnny Klimek
    SZEREPLŐK: Carla Gugino , Bruce Greenwood , Gil Bellows , Shiloh Fernandez , Giancarlo Esposito ,
    Elena Anaya , Greg Bryk , Natalie Hall

      Spoiler: mediainfo 
    Video
    ID : 1
    Format : HEVC
    Format/Info : High Efficiency Video Coding
    Format profile : Main@L3.1@Main
    Codec ID : V_MPEGH/ISO/HEVC
    Duration : 1 h 7 min
    Bit rate : 511 kb/s
    Width : 1 280 pixels
    Height : 640 pixels
    Display aspect ratio : 2.000
    Frame rate mode : Constant
    Frame rate : 23.976 (24000/1001) FPS
    Color space : YUV
    Chroma subsampling : 4:2:0
    Bit depth : 8 bits
    Bits/(Pixel*Frame) : 0.026
    Stream size : 247 MiB (89%)
    Default : Yes
    Forced : No

    Audio
    ID : 2
    Format : AAC LC SBR
    Format/Info : Advanced Audio Codec Low Complexity with Spectral Band Replication
    Commercial name : HE-AAC
    Format settings : Explicit
    Codec ID : A_AAC-2
    Duration : 1 h 7 min
    Bit rate : 62.7 kb/s
    Channel(s) : 2 channels
    Channel layout : L R
    Sampling rate : 48.0 kHz
    Frame rate : 23.438 FPS (2048 SPF)
    Compression mode : Lossy
    Stream size : 30.4 MiB (11%)
    Language : Hungarian
    Default : Yes
    Forced : No


    **Rejtett tartalom: Klikkelj a Köszönöm gombra, ha szeretnéd látni**


    Hasonló témák:

  2. Eddig 40 Felhasználó mondott köszönetet stone felhaszlálónak ezért a témáért:

    adori (2020-05-23),Billy Pilgrim (2020-05-24),bkka (2020-05-28),bujal (2020-05-24),Comondor (2020-05-23),csaszibada (2020-05-23),Csillagjáró (2020-05-24),csita63 (2020-05-23),dalobo (2020-05-24),detterw9 (2020-05-24),dexter2004 (2020-05-31),dobostorta (2020-05-23),dzkk (2020-06-01),exhobo (2020-05-24),gezuka85 (2020-05-24),gyuri45 (2020-05-23),handabandi (2020-05-23),Hatalmas56 (2020-05-31),Koni (2020-05-23),kotyonfi (2020-05-24),kucwalder (2020-05-30),lenin (2020-05-24),luigi (2020-05-23),marionett (2020-05-24),marmegint (2020-05-23),moroci (2020-05-25),percsi8 (2020-06-01),qerwexy (2020-05-23),qwertyy (2020-05-24),rs01 (2020-05-23),RudyZ (2020-05-25),sagem (2020-05-24),Santana48 (2020-05-23),sezom (2020-05-24),Tanger (2020-05-23),tokami (2020-05-24),zed_58 (2020-05-24),Zoltanyx (2020-05-30),zsebzsi (2020-05-26),zöreg (2020-05-23)

 

 

A Téma cimkéi

Jogosultságok

  • Nem nyithatsz Új Témát
  • Nem válaszolhatsz a Témában
  • Nem csatolhatsz állományt
  • Nem szerkesztheted a Hozzászólásaid
  •