Results 1 to 1 of 1
  1. #1
    Status
    Offline
    stone's Avatar
    Feltöltő
    Csatlakozott
    13-12-22
    Hozzászólások
    767
    Halott Témáim
    Igen, Törölhető
    Köszönöm
    298
    8.502 Kapott Köszi 748 Témáért

    Bates Motel - Psycho a kezdetektől.2013.720p.10bit.BluRay.x265 1. T évad

    Bates Motel - Psycho a kezdetektől.2013.720p.10bit.BluRay.x265
    , amerikai thrillersorozat, 45 perc, 230 Mb/rész








    A Psycho előzménysorozata, mely a tinédzser Norman Bates és édesanyja Norma életét mutatja be közvetlenül az öreg és titokzatos Bates Motel-be való költözés után.

    RENDEZŐ: Tucker Gates, Ed Bianchi, Phil Abraham
    FORGATÓKÖNYVÍRÓ: Robert Bloch, Anthony Cipriano, Carlton Cuse, Kerry Ehrin
    ZENE: Chris Bacon
    SZEREPLŐK: Vera Farmiga , Freddie Highmore , Rihanna , Richard Harmon ,
    Kathleen Robertson , Max Thieriot , Olivia Cooke

      Spoiler: mediainfo 
    Video
    ID : 1
    Format : HEVC
    Format/Info : High Efficiency Video Coding
    Format profile : Main 10@L4.1@High
    Codec ID : V_MPEGH/ISO/HEVC
    Duration : 48 min 3 s
    Bit rate : 648 kb/s
    Width : 1 280 pixels
    Height : 720 pixels
    Display aspect ratio : 16:9
    Frame rate mode : Constant
    Frame rate : 23.976 (24000/1001) FPS
    Color space : YUV
    Chroma subsampling : 4:2:0
    Bit depth : 10 bits
    Bits/(Pixel*Frame) : 0.029
    Stream size : 223 MiB (91%)
    Default : Yes
    Forced : No
    Color range : Limited
    Color primaries : BT.709
    Transfer characteristics : BT.709
    Matrix coefficients : BT.709

    Audio
    ID : 2
    Format : AAC LC SBR
    Format/Info : Advanced Audio Codec Low Complexity with Spectral Band Replication
    Commercial name : HE-AAC
    Format settings : Explicit
    Codec ID : A_AAC-2
    Duration : 48 min 3 s
    Bit rate : 62.7 kb/s
    Channel(s) : 2 channels
    Channel layout : L R
    Sampling rate : 48.0 kHz
    Frame rate : 23.438 FPS (2048 SPF)
    Compression mode : Lossy
    Stream size : 21.6 MiB (9%)
    Language : Hungarian
    Default : Yes
    Forced : No


    1. évad 2.17 Gb

    Code: 

    Link megtekintéséhez LÉPJ BE vagy REGISZTRÁLJ az oldalra



    Hasonló témák:
    Last edited by stone; 2020-01-15 at 13:01.

  2. Eddig 3 Felhasználó mondott köszönetet stone felhaszlálónak ezért a témáért:

    Csillagjáró (2020-01-14),moserusso (2020-01-14),qerwexy (2020-01-14)

 

 

A Téma cimkéi

Jogosultságok

  • Nem nyithatsz Új Témát
  • Nem válaszolhatsz a Témában
  • Nem csatolhatsz állományt
  • Nem szerkesztheted a Hozzászólásaid
  •