Results 1 to 2 of 2
  1. #1
    Status
    Offline
    stone's Avatar
    Feltöltő
    Csatlakozott
    13-12-22
    Hozzászólások
    647
    Halott Témáim
    Igen, Törölhető
    Köszönöm
    294
    5.658 Kapott Köszi 644 Témáért

    Isten bárányai (Lambs Of God) 2019.WEB-DL.x264.Hu

    Isten bárányai (Lambs Of God) 2019.WEB-DL.x264.Hu
    , ausztrál minisorozat, 60 perc, 330 Mb





    Sötét, gótikus mese három katolikus apácáról, akik egy távoli szigeten, a világtól elzártan élnek egy pusztuló kolostorban, ahol a növényzet kezdi benőni a kőangyalokat és a juhok szabadon járkálnak a kápolnában.
    A különböző korú nővérek a zárt Szent Ágnes rend utolsó képviselői. Alázatos életet élnek, imádkoznak, este pedig sötét tündérmeséket mesélnek egymásnak. Az életüket felkavarja egy nemkívánatos látogató, Ignotus atya érkezése.
    Megragadó történet a hitről, szeretetről és a megváltásról.

    RENDEZŐ: Jeffrey Walker
    FORGATÓKÖNYVÍRÓ: Sarah Lambert
    ZENE: Bryony Marks

    SZEREPLŐK: Jessica Barden , Ann Dowd , Essie Davis , Damon Herriman ,
    Sigrid Thornton , Sam Reid , Asha Boswarva , Arianthe Galani

      Spoiler: mediainfo 
    Video
    ID : 1
    Format : AVC
    Format/Info : Advanced Video Codec
    Format profile : High@L4.1
    Format settings : CABAC / 4 Ref Frames
    Format settings, CABAC : Yes
    Format settings, Reference : 4 frames
    Codec ID : V_MPEG4/ISO/AVC
    Duration : 54 min 39 s
    Bit rate : 710 kb/s
    Width : 720 pixels
    Height : 408 pixels
    Display aspect ratio : 16:9
    Frame rate mode : Constant
    Frame rate : 25.000 FPS
    Color space : YUV
    Chroma subsampling : 4:2:0
    Bit depth : 8 bits
    Scan type : Progressive
    Bits/(Pixel*Frame) : 0.097
    Stream size : 277 MiB (85%)
    Default : Yes
    Forced : No
    Color range : Limited
    Color primaries : BT.709
    Transfer characteristics : BT.709
    Matrix coefficients : BT.709

    Audio
    ID : 2
    Format : AAC LC
    Format/Info : Advanced Audio Codec Low Complexity
    Codec ID : A_AAC-2
    Duration : 54 min 39 s
    Bit rate : 125 kb/s
    Channel(s) : 2 channels
    Channel layout : L R
    Sampling rate : 48.0 kHz
    Frame rate : 46.875 FPS (1024 SPF)
    Compression mode : Lossy
    Stream size : 49.0 MiB (15%)
    Language : Hungarian
    Default : Yes
    Forced : No



    Code: 

    Link megtekintéséhez LÉPJ BE vagy REGISZTRÁLJ az oldalra



    Hasonló témák:
    Last edited by stone; Tegnap at 23:48.

  2. A következő felhasználók köszönték meg stone hozzászólását

    EasyRyder (2019-09-11)

  3. #2
    Status
    Offline
    stone's Avatar
    Feltöltő
    Csatlakozott
    13-12-22
    Hozzászólások
    647
    Halott Témáim
    Igen, Törölhető
    Köszönöm
    294
    5.658 Kapott Köszi 644 Témáért
    Isten bárányai (Lambs Of God) 2019.WEB-DL.x264.Hu 3. rész feltöltve.


 

 

A Téma cimkéi

Jogosultságok

  • Nem nyithatsz Új Témát
  • Nem válaszolhatsz a Témában
  • Nem csatolhatsz állományt
  • Nem szerkesztheted a Hozzászólásaid
  •