Results 1 to 3 of 3
  1. #1
    Status
    Offline
    stone's Avatar
    Feltöltő
    Csatlakozott
    13-12-22
    Hozzászólások
    796
    Halott Témáim
    Igen, Törölhető
    Köszönöm
    299
    9.556 Kapott Köszi 779 Témáért

    Isten bárányai (Lambs Of God)2019.720p.10bit.WEB-DL.x265.Hu

    Isten bárányai (Lambs Of God)2019.720p.10bit.WEB-DL.x265.Hu
    , ausztrál minisorozat, 60 perc, 250 Mb






    Sötét, gótikus mese három katolikus apácáról, akik egy távoli szigeten, a világtól elzártan élnek egy pusztuló kolostorban, ahol a növényzet kezdi benőni a kőangyalokat és a juhok szabadon járkálnak a kápolnában.
    A különböző korú nővérek a zárt Szent Ágnes rend utolsó képviselői. Alázatos életet élnek, imádkoznak, este pedig sötét tündérmeséket mesélnek egymásnak. Az életüket felkavarja egy nemkívánatos látogató, Ignotus atya érkezése.
    Megragadó történet a hitről, szeretetről és a megváltásról.

    RENDEZŐ: Jeffrey Walker
    FORGATÓKÖNYVÍRÓ: Sarah Lambert
    ZENE: Bryony Marks

    SZEREPLŐK: Jessica Barden , Ann Dowd , Essie Davis , Damon Herriman ,
    Sigrid Thornton , Sam Reid , Asha Boswarva , Arianthe Galani

      Spoiler: mediainfo 
    Video
    ID : 1
    Format : HEVC
    Format/Info : High Efficiency Video Coding
    Format profile : Main 10@L4.1@High
    Codec ID : V_MPEGH/ISO/HEVC
    Duration : 54 min 39 s
    Bit rate : 587 kb/s
    Width : 1 280 pixels
    Height : 720 pixels
    Display aspect ratio : 16:9
    Frame rate mode : Constant
    Frame rate : 25.000 FPS
    Color space : YUV
    Chroma subsampling : 4:2:0
    Bit depth : 10 bits
    Bits/(Pixel*Frame) : 0.025
    Stream size : 230 MiB (90%)
    Default : Yes
    Forced : No
    Color range : Limited
    Color primaries : BT.709
    Transfer characteristics : BT.709
    Matrix coefficients : BT.709

    Audio
    ID : 2
    Format : AAC LC SBR
    Format/Info : Advanced Audio Codec Low Complexity with Spectral Band Replication
    Commercial name : HE-AAC
    Format settings : Explicit
    Codec ID : A_AAC-2
    Duration : 54 min 39 s
    Bit rate : 62.7 kb/s
    Channel(s) : 2 channels
    Channel layout : L R
    Sampling rate : 48.0 kHz
    Frame rate : 23.438 FPS (2048 SPF)
    Compression mode : Lossy
    Stream size : 24.5 MiB (10%)
    Language : Hungarian
    Default : Yes
    Forced : No



    Code: 

    Link megtekintéséhez LÉPJ BE vagy REGISZTRÁLJ az oldalra



    Hasonló témák:
    Last edited by stone; 2019-09-21 at 19:26.

  2. Eddig 8 Felhasználó mondott köszönetet stone felhaszlálónak ezért a témáért:

    EasyRyder (2019-09-11),Efendi (2019-11-05),elem2 (2019-09-19),Gebu (2019-09-14),hasznosimre (2019-09-12),kocsismari (2019-09-11),papajamamaja (2019-11-13),qerwexy (2019-09-21)

  3. #2
    Status
    Offline
    stone's Avatar
    Feltöltő
    Csatlakozott
    13-12-22
    Hozzászólások
    796
    Halott Témáim
    Igen, Törölhető
    Köszönöm
    299
    9.556 Kapott Köszi 779 Témáért
    Isten bárányai (Lambs Of God)2019.720p.10bit.WEB-DL.x265.Hu 3. rész feltöltve.


  4. Eddig 2 Felhasználó mondott köszönetet stone felhaszlálónak ezért a témáért:

    EasyRyder (2019-09-20),qerwexy (2019-09-21)

  5. #3
    Status
    Offline
    stone's Avatar
    Feltöltő
    Csatlakozott
    13-12-22
    Hozzászólások
    796
    Halott Témáim
    Igen, Törölhető
    Köszönöm
    299
    9.556 Kapott Köszi 779 Témáért
    Isten bárányai (Lambs Of God)2019.720p.10bit.WEB-DL.x265.Hu 4. rész feltöltve.


  6. Eddig 2 Felhasználó mondott köszönetet stone felhaszlálónak ezért a témáért:

    EasyRyder (2019-09-21),qerwexy (2019-09-21)

 

 

A Téma cimkéi

Jogosultságok

  • Nem nyithatsz Új Témát
  • Nem válaszolhatsz a Témában
  • Nem csatolhatsz állományt
  • Nem szerkesztheted a Hozzászólásaid
  •