Results 1 to 2 of 2
  1. #1
    Status
    Offline
    666bomba's Avatar
    Adminisztrátor
    Csatlakozott
    15-05-12
    Hozzászólások
    945
    Halott Témáim
    Nem, Újraélesztem
    Köszönöm
    598
    34.992 Kapott Köszi 934 Témáért
    Bejegyzések
    2

    Halle Berry Halle Maria Berry Filmek folyamatos

    Halle Berry

    Halle Maria Berry




    Halle Maria Berry [ˈhćlɪ ˈbɛɹɪ], született Maria Halle Berry néven (Cleveland, Ohio, 1966. augusztus 14. –) Oscar-, Primetime Emmy- és Golden Globe-díjas amerikai színésznő, modell, szépségkirálynő.

    2002-ben a Szörnyek keringője című filmjével megnyerte a legjobb színésznőnek járó Oscar-díjat, a kategóriában első és napjainkig egyedüli afro-amerikai színésznőként.

    A 2000-es években a legjobban fizetett hollywoodi színésznők közé tartozott és producerként is kivette részét több filmjének elkészítésében. A színészet előtt modellként dolgozott, számos szépségversenyen kiemelkedő helyezéseket elérve. Első jelentősebb filmje a Bumeráng (1992) című romantikus vígjáték volt Eddie Murphy oldalán. Az évtized során feltűnt még A Flintstone család (1994) című családi vígjátékban, a Nyomd a sódert! (1998) című politikai vígjáték-drámában és a Fekete csillag (1999) című tévéfilmben – utóbbival egyebek mellett Primetime Emmy-díjat és Golden Globe-díjat is nyert.

    2000-től olyan, nagy költségvetésű produkciókban szerepelt, mint az X-Men – A kívülállók (2000) című szuperhősfilm (a mutáns Ciklon szerepében), a Kardhal (2001) című bűnügyi thriller és a Halj meg máskor (2002) című James Bond-film. Ciklont az X-Men folytatásaiban is eljátszotta: X-Men 2. (2003), X-Men: Az ellenállás vége (2006). A 2010-es években megjelent filmjei között található a Felhőatlasz (2012) című sci-fi, A hívás (2013) című bűnügyi thriller és az X-Men: Az eljövendő múlt napjai (2014).



    Díjak és jelölések
    2000 - Emmy-díj - a legjobb színésznő TV-filmben - Fekete csillag
    2000 - Golden Globe-díj - a legjobb színésznő tv-filmben - Fekete csillag
    2001 - Oscar-díj - a legjobb színésznő - Szörnyek keringője
    2002 - MTV Movie Awards jelölés - a legjobb női főszereplő
    2002 - Golden Globe-díj jelölés - a legjobb drámai színésznő - Szörnyek keringője
    2003 - BAFTA-díj jelölés - a legjobb női főszereplő - Szörnyek keringője
    2003 - Berlini Nemzetközi Filmfesztivál - a legjobb női főszereplő Szörnyek keringője
    2005 - Arany Málna díj - a legrosszabb színésznő - Macskanő
    2005 - Arany Málna díj jelölés - a legrosszabb páros - Macskanő
    2005 - Emmy-díj jelölés - a legjobb színésznő TV-filmben - Their Eyes Were Watching God
    2006 - Golden Globe-díj jelölés - a legjobb színésznő tv-filmben - Their Eyes Were Watching God
    2011 - Golden Globe-díj jelölés - a legjobb drámai színésznő - Frankie and Alice

    Minden feltöltés prémium link

    Feltöltésre kerülő filmek
    A letöltő link csak akkor jelenik meg amikor a témát megköszönted!
    zöldel jelölöm ami fel lett töltve listában alulról kezdem.

    Code: 

    Link megtekintéséhez LÉPJ BE vagy REGISZTRÁLJ az oldalra



    Hasonló témák:
    Last edited by 666bomba; 2019-07-29 at 21:41.
    Ha törölt témát találsz az oldalon , használd a
    gombot!

    Minden esetben a jelszavam: 666bomba
    Az oldallal kapcsolatos dolgokkal bármikor kereshetsz privátban , találunk rá megoldást.
    Letöltővezérló ajánlás : http://www.mipony.net/



  2. Eddig 6 Felhasználó mondott köszönetet 666bomba felhaszlálónak ezért a témáért:

    agyenes (2019-07-29),bela56 (2019-08-02),domper73 (2019-07-30),s20051105 (2019-08-06),szilvaszili (2019-07-30),viki68 (2019-08-06)

  3. #2
    Status
    Offline
    666bomba's Avatar
    Adminisztrátor
    Csatlakozott
    15-05-12
    Hozzászólások
    945
    Halott Témáim
    Nem, Újraélesztem
    Köszönöm
    598
    34.992 Kapott Köszi 934 Témáért
    Bejegyzések
    2
    01.Dzsungelláz
    Jungle Fever

    színes, amerikai romantikus filmdráma, 126 perc, 1991




    Wesley Snipes (Flipper Purify)
    Halle Berry (Vivian)
    Annabella Sciorra (Angie)
    Samuel L. Jackson (Gator Purify)
    Tim Robbins (Jerry)
    Ruby Dee (Lucinda Purify)
    Ossie Davis (doktor)
    Queen Latifah (Lashawn)
    Spike Lee (Cyrus)
    John Turturro (Paulie Carbone)
    Nicholas Turturro (Vinny)


    Flipper Purify, a fekete bőrű építész viszonyt kezdeményez Angie Tucci-val, az olasz származású titkárnőjével. Kapcsolatuk rendkívüli bonyodalmat és nagy fájdalmat okoz mindkettőjük családjában. Kitagadják őket és környezetük soha többé nem tudja elfogadni ezt a helyzetet...


      Spoiler: info 
    Fájlnév: Dzsungellaz - Jungle Fever 1991 cd1.avi
    Fájl mérete: 700 Mb.

    [Film]
    Érvényes: Igen [AVI]
    Időtartam: 01:03:03
    Film teljes: Igen

    [Videó]
    Felbontás: 720x384
    Kodek: XviD MPEG-4 codec
    FPS: 25,00
    Bitráta: 1329 Kbps
    Minőségi faktor: 0,20 b/px

    [Audió]
    Kodek: ATSC/A-52 Dolby AC3
    Csatornák száma : 2
    Mintavétel: 48000 Hz
    Bitráta: 224 Kbps

    Fájlnév: Dzsungellaz - Jungle Fever 1991 cd2.avi
    Fájl mérete: 700 Mb.

    [Film]
    Érvényes: Igen [AVI]
    Időtartam: 01:03:44
    Film teljes: Igen

    [Videó]
    Felbontás: 720x384
    Kodek: XviD MPEG-4 codec
    FPS: 25,00
    Bitráta: 1312 Kbps
    Minőségi faktor: 0,19 b/px

    [Audió]
    Kodek: ATSC/A-52 Dolby AC3
    Csatornák száma : 2
    Mintavétel: 48000 Hz
    Bitráta: 224 Kbps





    **Rejtett tartalom: Klikkelj a Köszönöm gombra, ha szeretnéd látni**



    02.Az utolsó cserkész
    The Last Boy Scout

    színes, amerikai akciófilm, 105 perc, 1991




    Bruce Willis (Joe Hallenbeck)
    Damon Wayans (Jimmy Dix)
    Halle Berry (Cory)
    Chelsea Field (Sarah Hallenbeck)
    Noble Willingham (Sheldon Marcone)
    Taylor Negron (Milo)
    Danielle Harris (Darian Hallenbeck)
    Kim Coates (Chet)
    Michael Papajohn (bérgyilkos)
    James Gandolfini (Marcones Henchman)
    Clarence Felder (McCoskey)
    Anne Lockhart (Football Mom)




    A lecsúszott cinikus magánnyomozó összeáll a szintén züllött ex-hátvéddel, hogy megpróbáljanak megoldani egy halálesetet. Joe Hallenbeck egy kiégett nyomozó; Jimmy Dix pedig egy volt LA Stallions játékos. Hallenbeck-et felbérelik, hogy megvédje Cory-t. Mikor Cory-t meggyilkolják egy autós üldözés során, Hallenbeck és Dix - Cory barátja - elhatározzák, hogy az ügy végére járnak. Az ügy felgöngyölítése közepette arra kell rájönniük, hogy súlyos korrupció húzódik az ügy hátterében, méghozzá egy aljas politikus és egy focicsapat tulajdonosa közt.


      Spoiler: info 

    Fájl neve: Az utolso cserkesz - The Last Boy Scout 1991.avi
    Fájl mérete: 1,1 Gb.

    [Film]
    Érvényes: Igen [AVI]
    Időtartam: 01:45:24
    Film teljes: Igen

    [Videó]
    Felbontás: 624x256
    Kodek: XviD MPEG-4 codec
    FPS: 23,98
    Bitráta: 1044 Kbps
    Minőségi faktor: 0,28 b/px

    [Audió]
    Kodek: ATSC/A-52 Dolby AC3
    Csatornák száma : 6
    Mintavétel: 48000 Hz
    Bitráta: 448 Kbps





    **Rejtett tartalom: Klikkelj a Köszönöm gombra, ha szeretnéd látni**



    03.Bumeráng
    Boomerang

    színes, amerikai vígjáték, 118 perc, 1992






    Eddie Murphy (Marcus Graham)
    Robin Givens (Jacqueline)
    Halle Berry (Angela)
    David Alan Grier (Gerard)
    Martin Lawrence (Tyler)
    Grace Jones (Strangé)
    Chris Rock (Bony T)
    John Witherspoon (Mr. Jackson)
    Melvin Van Peebles (szerkesztő)



    Marcus Graham egy jól menő New York-i kozmetikai cégnél marketingigazgató, a magánéletben viszont megrögzött nőcsábász. Vonzó férfi, aki megnyerő modorával minden csinos nőt elcsábít. Egy nap azonban új főnök érkezik a céghez, aki történetesen nő és mellesleg ugyanolyan a természete, mint a Marcus-é.



      Spoiler: info 
    --- Video Információk ---


    Felbontás 640 x 368
    Méretarány 1.7391
    Formátum XVID
    Bitráta 1327 kbps
    Képkocka / másodperc 25.000
    Kiválasztott kodek ffodivx


    --- Audio Információk ---

    Formátum 8192
    Bitráta 448 kbps
    ╔rték 48000 Hz
    Csatornák 2
    Kiválasztott kodek a52




    **Rejtett tartalom: Klikkelj a Köszönöm gombra, ha szeretnéd látni**




    04.CB4 - A 4-es körlet
    színes, amerikai zenés vígjáték, 89 perc, 1993



    Chris Rock (Albert / MC Gusto)
    Allen Payne (Euripides / Dead Mike)
    Deezer-D (Otis / Stab Master Arson)
    Chris Elliott (A. White)
    Phil Hartman (Virgil Robinson)
    Khandi Alexander (Sissy)
    Ice-T (önmaga)
    Halle Berry (önmaga)
    Ice Cube (önmaga)
    Flavor Flav (önmaga)
    Shaquille O'Neal (önmaga)



    A. White dokumentumfilmet forgat a CB4 rapbandáról és annak tagjairól, Albert-ről, Otis-ról és Euripides-ről. White szerint sikerük annak köszönhető, hogy ők az egyetlen gengszter-rapcsapat akik a magánéletben is bűnözők. A csúcson derül ki, hogy mindössze középosztálybeli feketék akik jó fejnek akarnak látszani a gengszteres pózolással. Azonban gondban vannak: a kábítószer miatt börtönbe került Gusto megszökik és le akarja szedni őket


      Spoiler: info 
    Video
    ID : 1
    Format : AVC
    Format/Info : Advanced Video Codec
    Format profile : High@L3.1
    Format settings, CABAC : Yes
    Format settings, ReFrames : 5 frames
    Codec ID : V_MPEG4/ISO/AVC
    Duration : 1h 28mn
    Bit rate : 1 480 Kbps
    Width : 720 pixels
    Height : 384 pixels
    Display aspect ratio : 1.85:1
    Frame rate mode : Constant
    Frame rate : 29.970 fps
    Color space : YUV
    Chroma subsampling : 4:2:0
    Bit depth : 8 bits
    Scan type : Progressive
    Bits/(Pixel*Frame) : 0.179
    Stream size : 916 MiB (87%)
    Writing library : x264 core 146 r2538bm 121396c
    Encoding settings : cabac=1 / ref=5 / deblock=1:-1:-1 / analyse=0x3:0x113 / me=umh / subme=8 / psy=1 / psy_rd=1.00:0.15 / mixed_ref=1 / me_range=16 / chroma_me=1 / trellis=1 / 8x8dct=1 / cqm=0 / deadzone=21,11 / fast_pskip=1 / chroma_qp_offset=-3 / threads=12 / lookahead_threads=2 / sliced_threads=0 / nr=0 / decimate=1 / interlaced=0 / bluray_compat=0 / constrained_intra=0 / bframes=3 / b_pyramid=2 / b_adapt=2 / b_bias=0 / direct=3 / weightb=1 / open_gop=0 / weightp=2 / keyint=250 / keyint_min=25 / scenecut=40 / intra_refresh=0 / rc_lookahead=50 / rc=abr / mbtree=1 / bitrate=1480 / ratetol=1.0 / qcomp=0.60 / qpmin=0 / qpmax=69 / qpstep=4 / ip_ratio=1.40 / aq=1:1.00
    Default : Yes
    Forced : No

    Audio
    ID : 2
    Format : AC-3
    Format/Info : Audio Coding 3
    Mode extension : CM (complete main)
    Format settings, Endianness : Big
    Codec ID : A_AC3
    Duration : 1h 28mn
    Bit rate mode : Constant
    Bit rate : 192 Kbps
    Channel(s) : 2 channels
    Channel positions : Front: L R
    Sampling rate : 48.0 KHz
    Bit depth : 16 bits
    Compression mode : Lossy
    Stream size : 121 MiB (11%)
    Default : Yes
    Forced : No





    **Rejtett tartalom: Klikkelj a Köszönöm gombra, ha szeretnéd látni**


    05.Fater élve vagy halva
    (Father Hood)

    színes, amerikai vígjáték, 95 perc, 1993





    Patrick Swayze (Jack Charles)
    Halle Berry (Kathleen Mercer)
    Sabrina Lloyd (Kelly Charles)
    Michael Ironside (Jerry)
    Brian Bonsall (Eddie Charles)
    Diane Ladd (Rita)
    Adrienne Barbeau (Celeste)



    Jack Charles a kisstílű zsebtolvaj élete nagy dobására készül, amikor váratlanul megjelenik nála tinédzser korú lánya és fia akiket évekkel ezelőtt elhagyott. Így Jack kénytelen őket is elvinni New Orleansba. Sarkukban a rendőrséggel és Kathleen-nel a lelkes újságírónővel. A két gyermek egy olyan valódi országúti akciófilm közepén találja magát, ahol az apjuk a főszereplő.



      Spoiler: info 


    General
    Unique ID : 191040364558806403687346793106293935069 (0x8FB9092EB6BB3319A6CBD19768704BDD)
    Complete name : F:\1 kész\Fater élve vagy halva\Fater élve vagy halva.mkv
    Format : Matroska
    Format version : Version 4 / Version 2
    File size : 1.14 GiB
    Duration : 1h 35mn
    Overall bit rate : 1 714 Kbps
    Encoded date : UTC 2019-03-22 14:19:20
    Writing application : mkvmerge v8.3.0 ('Over the Horizon') 64bit
    Writing library : libebml v1.3.1 + libmatroska v1.4.2
    DURATION : 01:35:03.968000000
    NUMBER_OF_FRAMES : 178249
    NUMBER_OF_BYTES : 136895232
    _STATISTICS_WRITING_APP : mkvmerge v8.3.0 ('Over the Horizon') 64bit
    _STATISTICS_WRITING_DATE_UTC : 2019-03-22 14:19:20
    _STATISTICS_TAGS : BPS DURATION NUMBER_OF_FRAMES NUMBER_OF_BYTES
    Video
    ID : 1
    Format : AVC
    Format/Info : Advanced Video Codec
    Format profile : High@L4.1
    Format settings, CABAC : Yes
    Format settings, ReFrames : 16 frames
    Codec ID : V_MPEG4/ISO/AVC
    Duration : 1h 35mn
    Bit rate : 1 488 Kbps
    Width : 720 pixels
    Height : 390 pixels
    Display aspect ratio : 1.85:1
    Frame rate mode : Constant
    Frame rate : 29.970 fps
    Color space : YUV
    Chroma subsampling : 4:2:0
    Bit depth : 8 bits
    Scan type : Progressive
    Bits/(Pixel*Frame) : 0.177
    Stream size : 1 012 MiB (87%)
    Writing library : x264 core 146 r2538bm 121396c
    Encoding settings : cabac=1 / ref=16 / deblock=1:-3:-3 / analyse=0x3:0x133 / me=umh / subme=10 / psy=1 / psy_rd=1.00:0.00 / mixed_ref=1 / me_range=32 / chroma_me=1 / trellis=2 / 8x8dct=1 / cqm=0 / deadzone=21,11 / fast_pskip=0 / chroma_qp_offset=-2 / threads=12 / lookahead_threads=2 / sliced_threads=0 / nr=0 / decimate=1 / interlaced=0 / bluray_compat=0 / constrained_intra=0 / bframes=8 / b_pyramid=2 / b_adapt=2 / b_bias=0 / direct=3 / weightb=1 / open_gop=0 / weightp=2 / keyint=250 / keyint_min=23 / scenecut=40 / intra_refresh=0 / rc_lookahead=60 / rc=crf / mbtree=0 / crf=18.0 / qcomp=0.60 / qpmin=0 / qpmax=69 / qpstep=4 / vbv_maxrate=62500 / vbv_bufsize=78125 / crf_max=0.0 / nal_hrd=none / filler=0 / ip_ratio=1.40 / pb_ratio=1.30 / aq=1:0.75
    Default : Yes
    Forced : No
    Matrix coefficients : BT.709

    Audio
    ID : 2
    Format : AC-3
    Format/Info : Audio Coding 3
    Mode extension : CM (complete main)
    Format settings, Endianness : Big
    Codec ID : A_AC3
    Duration : 1h 35mn
    Bit rate mode : Constant
    Bit rate : 192 Kbps
    Channel(s) : 2 channels
    Channel positions : Front: L R
    Sampling rate : 48.0 KHz
    Bit depth : 16 bits
    Compression mode : Lossy
    Stream size : 131 MiB (11%)
    Default : Yes
    Forced : No




    **Rejtett tartalom: Klikkelj a Köszönöm gombra, ha szeretnéd látni**














    Last edited by 666bomba; 2019-07-29 at 22:13.
    Ha törölt témát találsz az oldalon , használd a
    gombot!

    Minden esetben a jelszavam: 666bomba
    Az oldallal kapcsolatos dolgokkal bármikor kereshetsz privátban , találunk rá megoldást.
    Letöltővezérló ajánlás : http://www.mipony.net/



  4. Eddig 7 Felhasználó mondott köszönetet 666bomba felhaszlálónak ezért a témáért:

    bela56 (2019-08-02),Bob024 (2019-07-29),feher0604 (2019-08-16),isten111 (2019-07-30),Jaxxhardy (2019-07-29),marschmrk (2019-08-08),zed_58 (2019-07-29)

 

 

Jogosultságok

  • Nem nyithatsz Új Témát
  • Nem válaszolhatsz a Témában
  • Nem csatolhatsz állományt
  • Nem szerkesztheted a Hozzászólásaid
  •