Results 1 to 1 of 1
  1. #1
    Status
    Offline
    macilaci41's Avatar
    Feltöltő
    Csatlakozott
    14-09-26
    Hozzászólások
    155
    Halott Témáim
    Nem, Újraélesztem
    Köszönöm
    142
    5.825 Kapott Köszi 142 Témáért

    1080 Terminator 2 Az Ítélet Napja /T2 Judgment Day/Skynet Edition/1991/1080p/Hundub-Engdub

    Terminator 2 Az Ítélet Napja /T2 Judgment Day/Skynet Edition/1991/1080p/Hundub-Engdub-Hunsub
    Amerikai akciófilm, 156 perc



    Történet
    1997. augusztus 29-én kitört a harmadik világháború. Ennek a háborúnak 3 milliárd áldozata volt. A megmaradt emberiségnek hamarosan újabb iszonyattal kell szembenézzen: a gépek elleni háborúval. S most a Skynet gépei egy új Terminátort terveztek, aminek csak egyetlen feladata van: elpusztítani John Connor-t, a gépek elleni harc vezetőjét. S minthogy a tervezés időpontjában a tudomány már képes az időutazásra, a Terminátort visszaküldik az időben, hogy John-t még gyerekkorában pusztítsa el. Az emberek azonban szintén felkészültek az eseményre: ők is visszaküldtek egy Terminátort az időben, aminek az a feladata, hogy megvédje az ifjú Johnt. John Connor tehát tinédzser még, amikor életében megjelenik a két Terminátor, hogy végzetes összecsapásban számoljanak le egymással.

    Stáblista

    Szereplők
    Terminátor
    Arnold Schwarzenegger
    Sarah Connor
    Linda Hamilton
    John Connor
    Edward Furlong
    T-1000
    Robert Patrick
    Dr. Silberman
    Earl Boen
    Miles Dyson
    Joe Morton
    Tarissa Dyson
    S. Epatha Merkerson
    Enrique Salceda
    Castulo Guerra
    Nikki Cox
    Alkotók
    RENDEZŐ:
    James Cameron
    ÍRÓ:
    James Cameron
    FORGATÓKÖNYVÍRÓ:
    James Cameron
    Wisher William Jr.
    ZENESZERZŐ:
    Brad Fiedel
    OPERATŐR:
    Adam Greenberg
    JELMEZTERVEZŐ:
    Marlene Stewart
    PRODUCER:
    Stephanie Austin
    James Cameron
    Mario Kassar
    EXECUTIVE PRODUCER:
    Gale Anne Hurd
    Mario Kassar
    LÁTVÁNYTERVEZŐ:
    Joseph C. Nemec
    HANGMÉRNÖK:
    Tom Johnson
    Gary Rydstrom
    Gary Summers
    Lee Orloff
    VÁGÓ:
    Conrad Buff IV
    Mark Goldblatt
    Richard A. Harris
    VIZUÁLIS EFFEKTEK:
    Dennis Muren
    Stan Winston
    Gene Warren Jr.
    Robert Skotak
    HANG EFFEKTEK:
    Gloria S. Borders
    MAKE UP:
    Stan Winston
    Jeff Dawn
    Videoinformációk

    General
    Format : Matroska
    Format version : Version 4
    File size : 8.19 GiB
    Duration : 2 h 36 min
    Overall bit rate : 7 512 kb/s
    Movie name : Terminator 2 Skynet Edition
    Encoded date : UTC 2019-07-11 07:19:46
    Cover : Yes
    Attachments : cover.jpg
    Video
    ID : 1
    Format : HEVC
    Format/Info : High Efficiency Video Coding
    Format profile : Main 10@L4@Main
    Codec ID : V_MPEGH/ISO/HEVC
    Duration : 2 h 36 min
    Bit rate : 5 552 kb/s
    Width : 1 920 pixels
    Height : 812 pixels
    Display aspect ratio : 2.35:1
    Frame rate mode : Constant
    Frame rate : 23.976 (24000/1001) FPS
    Color space : YUV
    Chroma subsampling : 4:2:0
    Bit depth : 10 bits
    Bits/(Pixel*Frame) : 0.149
    Stream size : 6.05 GiB (74%)
    Title : Terminator 2 Skynet Edition
    Language : English
    Default : Yes
    Forced : No
    Color range : Limited
    Color primaries : BT.709
    Transfer characteristics : BT.709
    Matrix coefficients : BT.709
    Audio #1
    ID : 2
    Format : AC-3
    Format/Info : Audio Coding 3
    Commercial name : Dolby Digital
    Codec ID : A_AC3
    Duration : 2 h 36 min
    Bit rate mode : Constant
    Bit rate : 448 kb/s
    Channel(s) : 6 channels
    Channel layout : L R C LFE Ls Rs
    Sampling rate : 48.0 kHz
    Frame rate : 31.250 FPS (1536 SPF)
    Bit depth : 16 bits
    Compression mode : Lossy
    Stream size : 500 MiB (6%)
    Language : Hungarian
    Service kind : Complete Main
    Default : Yes
    Forced : No
    Audio #2
    ID : 3
    Format : DTS ES
    Format/Info : Digital Theater Systems
    Commercial name : DTS-ES Matrix
    Codec ID : A_DTS
    Duration : 2 h 36 min
    Bit rate mode : Constant
    Bit rate : 1 509 kb/s
    Channel(s) : 6 channels
    Channel(s)_Original : 7 channels
    ChannelLayout_Original : C L R Ls Rs Cs LFE
    Sampling rate : 48.0 kHz
    Frame rate : 93.750 FPS (512 SPF)
    Bit depth : 24 bits
    Compression mode : Lossy
    Stream size : 1.65 GiB (20%)
    Language : English
    Default : No
    Forced : No
    Text #1
    ID : 4
    Format : UTF-8
    Codec ID : S_TEXT/UTF8
    Codec ID/Info : UTF-8 Plain Text
    Duration : 1 min 13 s
    Bit rate : 78 b/s
    Count of elements : 15
    Stream size : 713 Bytes (0%)
    Title : Kiegészítő
    Language : Hungarian
    Default : Yes
    Forced : No
    Text #2
    ID : 5
    Format : UTF-8
    Codec ID : S_TEXT/UTF8
    Codec ID/Info : UTF-8 Plain Text
    Duration : 2 h 29 min
    Bit rate : 28 b/s
    Count of elements : 1107
    Stream size : 31.4 KiB (0%)
    Title : Teljes
    Language : Hungarian
    Default : No
    Forced : No
    Sample és letöltés

    **Rejtett tartalom: Klikkelj a Köszönöm gombra, ha szeretnéd látni**


    Hasonló témák:

  2. Eddig 19 Felhasználó mondott köszönetet macilaci41 felhaszlálónak ezért a témáért:

    Atitati46 (2019-07-17),betonrepa (Tegnap),binda (2019-07-13),Csillagjáró (2019-07-12),csucsu176 (2019-07-13),cyb (2019-07-18),fugefrankie (2019-07-13),ganita (2019-07-12),GeomaN (2019-07-12),kis joc (2019-07-12),malacka1021 (2019-07-16),Misi69 (2019-07-12),Saltyb (2019-07-17),Santana48 (2019-07-12),Thomas Alexander (2019-07-14),tizennegyedik (2019-07-12),waszer (2019-07-18),Yocosama (2019-07-12),zoli mucka (2019-07-12)

 

 

Jogosultságok

  • Nem nyithatsz Új Témát
  • Nem válaszolhatsz a Témában
  • Nem csatolhatsz állományt
  • Nem szerkesztheted a Hozzászólásaid
  •