Results 1 to 1 of 1
  1. #1
    Status
    Offline
    bubus66's Avatar
    Szuper Feltöltő
    Csatlakozott
    13-11-29
    Hozzászólások
    1.017
    Halott Témáim
    Igen, Törölhető
    Köszönöm
    14
    5.073 Kapott Köszi 1.038 Témáért

    A 109. utas (Passengers) 2008

    A 109. utas (Passengers) 2008.DVDRip.HUN.Xvid.avi
    színes, magyarul beszélő, amerikai thriller 88 perc (16)





    Stáblista:
    rendező: Rodrigo García
    forgatókönyvíró: Ronnie Christensen
    zeneszerző: Ed Shearmur
    operatőr: Igor Jadue-Lillo
    producer: Joseph Drake
    vágó: Thom Noble

    Szereplő(k):
    Anne Hathaway (Claire Summers)
    Patrick Wilson (Eric)
    David Morse (Arkin)
    Andre Braugher (Perry)
    Dianne Wiest (Toni)

    Tartalom:
    A fiatal és csinos Claire pszichoterapeutaként dolgozik. A doktornőt egy repülőgép-szerencsétlenség túlélőinek kezelésével bízzák meg, hogy segítsen az embereknek feldolgozni a traumát. Érdekes módon, amikor felidézik a baleset körülményeit, az utasok egy része valami robbanásról beszél, ám a hivatalos vizsgálat erre nem tesz semmiféle utalást. Az egyik utas, Eric felkelti Claire érdeklődését, szerinte a férfi tudja, mi történt. Miközben kapcsolatuk románccá alakul, egyre több túlélő tűnik el titokzatos körülmények között. Claire magánnyomozásba kezd, hogy kiderítse, mi történt.

    General
    Complete name : Passengers.2008.DVDRip.HUN.Xvid.avi
    Format : AVI
    Format/Info : Audio Video Interleave
    File size : 702 MiB
    Duration : 1h 28mn
    Overall bit rate mode : Variable
    Overall bit rate : 1 105 Kbps
    Writing application : FairUse Wizard - http://fairusewizard.com
    Writing library : The best and REALLY easy backup tool

    Video
    ID : 0
    Format : MPEG-4 Visual
    Format profile : Advanced Simple@L5
    Format settings, BVOP : 2
    Format settings, QPel : No
    Format settings, GMC : No warppoints
    Format settings, Matrix : Default (H.263)
    Muxing mode : Packed bitstream
    Codec ID : XVID
    Codec ID/Hint : XviD
    Duration : 1h 28mn
    Bit rate : 984 Kbps
    Width : 640 pixels
    Height : 352 pixels
    Display aspect ratio : 16:9
    Frame rate : 25.000 fps
    Color space : YUV
    Chroma subsampling : 4:2:0
    Bit depth : 8 bits
    Scan type : Progressive
    Compression mode : Lossy
    Bits/(Pixel*Frame) : 0.175
    Stream size : 625 MiB (89%)
    Writing library : XviD 1.2.0.dev47 (UTC 2006-11-01)

    Audio
    ID : 1
    Format : MPEG Audio
    Format version : Version 1
    Format profile : Layer 3
    Mode : Joint stereo
    Mode extension : MS Stereo
    Codec ID : 55
    Codec ID/Hint : MP3
    Duration : 1h 28mn
    Bit rate mode : Variable
    Bit rate : 108 Kbps
    Nominal bit rate : 128 Kbps
    Channel(s) : 2 channels
    Sampling rate : 48.0 KHz
    Compression mode : Lossy
    Stream size : 68.7 MiB (10%)
    Alignment : Aligned on interleaves
    Interleave, duration : 24 ms (0.60 video frame)
    Interleave, preload duratio : 493 ms
    Writing library : LAME3.97
    Encoding settings : -m j -V 4 -q 2 -lowpass 17 --abr 128


    Code: 

    Link megtekintéséhez LÉPJ BE vagy REGISZTRÁLJ az oldalra


    Code: 

    Link megtekintéséhez LÉPJ BE vagy REGISZTRÁLJ az oldalra


    Code: 

    Link megtekintéséhez LÉPJ BE vagy REGISZTRÁLJ az oldalra



    Hasonló témák:

  2. Eddig 4 Felhasználó mondott köszönetet bubus66 felhaszlálónak ezért a témáért:

    atti43 (2019-07-12),ceanka (2019-07-13),hasznosimre (2019-07-11),Rangboss (2019-07-12)

 

 

Jogosultságok

  • Nem nyithatsz Új Témát
  • Nem válaszolhatsz a Témában
  • Nem csatolhatsz állományt
  • Nem szerkesztheted a Hozzászólásaid
  •