Results 1 to 1 of 1
  1. #1
    Status
    Offline
    bubus66's Avatar
    Szuper Feltltő
    Csatlakozott
    13-11-29
    Hozzszlsok
    1.017
    Halott Tmim
    Igen, Trlhető
    Ksznm
    14
    5.070 Kapott Kszi 1.038 Tmrt

    9 hnap letltendő (9 mois ferme)2013

    9 hnap letltendő (9 mois ferme)2013 DVDRip.x264.HuN
    sznes, magyarul beszlő, francia vgjtk, 82 perc, (12)





    Rendező
    Albert Dupontel

    Szereplők
    Albert Dupontel (Bob Nolan)
    Sandrine Kiberlain (Ariane Felder)
    Nicolas Mari (Maitre Trolos)
    Philippe Uchan (De Bernard)
    Philippe Duquesne (Dr. Toulate)
    Gilles Gaston-Dreyfus (M. De Lime)
    Laure Calamy (Daisy)

    Tartalom
    Ariane, a szigor erklcsű brnő rjn, hogy terhes. Radsul az apasgi teszt szerint Bob, az agresszv bűnző az "elkvető". Ariane semmire sem emlkszik, ezrt szinte az őrletbe kergeti az eset.
    General
    Complete name :ricsi.csjk.bsszj.2014.wmv
    Format : Windows Media
    File size : 1.94 GiB
    Duration : 1h 49mn
    Overall bit rate mode : Constant
    Overall bit rate : 2 545 Kbps
    Maximum Overall bit rate : 5 169 Kbps
    Encoded date : UTC 2014-07-04 12:18:24.990

    Video
    ID : 2
    Format : VC-1
    Format profile : MP@ML
    Codec ID : WMV3
    Codec ID/Info : Windows Media Video 9
    Codec ID/Hint : WMV3
    Description of the codec : Windows Media Video 9
    Duration : 1h 49mn
    Bit rate mode : Constant
    Bit rate : 5 000 Kbps
    Width : 720 pixels
    Height : 400 pixels
    Display aspect ratio : 16:9
    Frame rate : 25.000 fps
    Color space : YUV
    Chroma subsampling : 4:2:0
    Bit depth : 8 bits
    Scan type : Progressive
    Compression mode : Lossy
    Bits/(Pixel*Frame) : 0.694
    Stream size : 3.81 GiB
    Language : English (US)

    Audio
    ID : 1
    Format : WMA
    Format version : Version 2
    Codec ID : 161
    Codec ID/Info : Windows Media Audio
    Description of the codec : Windows Media Audio 9.2 - 128 kbps, 44 kHz, stereo 1-pass CBR
    Duration : 1h 49mn
    Bit rate mode : Constant
    Bit rate : 128 Kbps
    Channel(s) : 2 channels
    Sampling rate : 44.1 KHz
    Bit depth : 16 bits
    Stream size : 100.0 MiB (5%)
    Language : English (US)


    Code: 

    Link megtekintshez LPJ BE vagy REGISZTRLJ az oldalra


    Code: 

    Link megtekintshez LPJ BE vagy REGISZTRLJ az oldalra


    Code: 

    Link megtekintshez LPJ BE vagy REGISZTRLJ az oldalra



    Hasonl tmk:
    zenet idzse zenet idzse Jelentve

  2. Eddig 4 Felhasznl mondott ksznetet bubus66 felhaszllnak ezrt a tmrt:

    hasznosimre (2019-07-11),laszlosnagy (2019-07-13),Terebint (2019-07-12),rdg911 (2019-07-12)

 

 

Jogosultsgok

  • Nem nyithatsz j Tmt
  • Nem vlaszolhatsz a Tmban
  • Nem csatolhatsz llomnyt
  • Nem szerkesztheted a Hozzszlsaid
  •