Results 1 to 1 of 1
  1. #1
    Status
    Offline
    macilaci41's Avatar
    Feltöltő
    Csatlakozott
    14-09-26
    Hozzászólások
    178
    Halott Témáim
    Nem, Újraélesztem
    Köszönöm
    158
    6.749 Kapott Köszi 165 Témáért

    1080 Watchmen Az őrzők/Watchmen Ultimate cut/2009/215 perc/H265/1080p/Engndub-Hunsub

    Watchmen Az őrzők/Watchmen Ultimate cut/2009/215 perc/H265/1080p/Engndub-Hunsub
    Amerikai-Kanadai-Angol Magyar akciófilm



    Történet
    Amerika egyik alternatív változata a nyolcvanas években. A szuperhősök tevékenységét betiltották, a társadalom egykor megbecsült tagjait az alvilágba száműzték. Rorschach az egyetlen hős, aki nem fogadja el ezt a helyzetet.

    Stáblista:
    Szereplők
    Laurie Jupiter / Selyem Kísértet
    Malin Akerman
    Dr. Manhattan / Jon Osterman
    Billy Crudup
    Adrian Veidt / Ozymandias
    Matthew Goode
    Sally Jupiter / Selyem Kísértet
    Carla Gugino
    Walter Kovacs / Rorschach
    Jackie Earle Haley
    Edward Blake / Komédiás
    Jeffrey Dean Morgan
    Dan Dreiberg / Éji Bagoly
    Patrick Wilson
    Moloch
    Matt Frewer

    Video : 3.87
    ID : 1
    Format : HEVC
    Duration : 3 h 35 min
    Bit rate : 2 478 kb/s
    Width : 1 920 pixels
    Height : 800 pixels
    Display aspect ratio : 2.40:1
    Frame rate : 23.976
    Bit depth : 10 bits
    Bits/(Pixel*Frame) : 0.067
    Stream size : 3.73 GiB
    Audio
    ID : 2
    Format : AAC LC
    Duration : 3 h 35 min
    Channel(s) : 2 channels
    Channel layout : L R
    Sampling rate : 48.0 kHz
    Frame rate : 46.875 FPS
    Stream size : 148 MiB
    Language : English
    Default : Yes
    Text
    ID : 3
    Format : UTF-8
    Duration : 3 h 24 min
    Title : Teljes
    Language : Hungarian
    Default : Yes

    Mintaképek

    **Rejtett tartalom: Klikkelj a Köszönöm gombra, ha szeretnéd látni**


    Letöltés

    **Rejtett tartalom: Klikkelj a Köszönöm gombra, ha szeretnéd látni**


    Hasonló témák:

  2. Eddig 8 Felhasználó mondott köszönetet macilaci41 felhaszlálónak ezért a témáért:

    ebi01 (2019-06-16),fugefrankie (2019-06-29),gbotos (2019-08-09),hegep (2019-06-13),Nico_71 (2019-06-29),sutolala (2019-06-14),SzeriA (2019-06-13),xymat12 (2019-06-18)

 

 

Jogosultságok

  • Nem nyithatsz Új Témát
  • Nem válaszolhatsz a Témában
  • Nem csatolhatsz állományt
  • Nem szerkesztheted a Hozzászólásaid
  •