Results 1 to 1 of 1
  1. #1
    Status
    Online
    macilaci41's Avatar
    Feltöltő
    Csatlakozott
    14-09-26
    Hozzászólások
    126
    Halott Témáim
    Nem, Újraélesztem
    Köszönöm
    130
    4.601 Kapott Köszi 117 Témáért

    1080 Watchmen Az őrzők/Watchmen/2009/162 perc/H265/1080p/Hundub-Hunsub

    Watchmen Az őrzők/Watchmen/2009/162 perc/H265/1080p/Hundub-Hunsub
    Amerikai-Kanadai-Angol akciófilm



    Történet
    Amerika egyik alternatív változata a nyolcvanas években. A szuperhősök tevékenységét betiltották, a társadalom egykor megbecsült tagjait az alvilágba száműzték. Rorschach az egyetlen hős, aki nem fogadja el ezt a helyzetet.

    Stáblista:
    Szereplők
    Laurie Jupiter / Selyem Kísértet
    Malin Akerman
    Dr. Manhattan / Jon Osterman
    Billy Crudup
    Adrian Veidt / Ozymandias
    Matthew Goode
    Sally Jupiter / Selyem Kísértet
    Carla Gugino
    Walter Kovacs / Rorschach
    Jackie Earle Haley
    Edward Blake / Komédiás
    Jeffrey Dean Morgan
    Dan Dreiberg / Éji Bagoly
    Patrick Wilson
    Moloch
    Matt Frewer

    Video : 4.36GiB
    ID : 1
    Format : HEVC
    Duration : 2 h 42 min
    Bit rate : 3 408 kb/s
    Width : 1 920 pixels
    Height : 800 pixels
    Display aspect ratio : 2.40:1
    Frame rate : 23.976
    Bit depth : 10 bits
    Stream size : 3.86 GiB (88%)
    Default : Yes
    Audio
    ID : 2
    Format : AC-3
    Duration : 2 h 42 mint
    Bit rate : 448 kb/s
    Channel(s) : 6 channels
    Channel layout : L R C LFE Ls Rs
    Sampling rate : 48.0 kHz
    Frame rate : 31.250 FPS
    Bit depth : 16 bits
    Stream size : 519 MiB (12%)
    Language : Hungarian
    Default : Yes
    Text
    ID : 3
    Format : UTF-8
    Duration : 2 h 9 min
    Title : forced
    Language : Hungarian


    Sample és letöltés

    **Rejtett tartalom: Klikkelj a Köszönöm gombra, ha szeretnéd látni**


    Hasonló témák:

  2. Eddig 45 Felhasználó mondott köszönetet macilaci41 felhaszlálónak ezért a témáért:

    63LEO (2019-06-12),acsat (2019-06-12),anatman (2019-06-18),atiska1 (2019-06-15),Atitati46 (2019-06-12),baberfa (2019-06-12),betonrepa (2019-06-14),bgandalf (2019-06-12),buratino02 (2019-06-15),Cobra parancsnok (2019-06-12),detterw9 (2019-06-12),dojcs (2019-06-18),EasyRyder (2019-06-12),feco25 (2019-06-12),feecske (2019-06-12),feketeandras (2019-06-13),fordfocus76 (2019-06-13),fugefrankie (2019-06-12),gbotos (2019-06-14),Gebu (2019-06-12),hatosa (2019-06-12),Heller (2019-06-12),Hestia01 (2019-06-12),holly25 (2019-06-15),johnny87 (2019-06-13),Kalman52 (2019-06-12),Kami (2019-06-12),karoslajos (2019-06-13),kis joc (2019-06-14),knjaz (2019-06-12),m60 (2019-06-13),ma0101 (2019-06-19),metro2013 (2019-06-12),npistu (2019-06-14),page242 (2019-06-19),punczee (2019-06-16),Santana48 (2019-06-12),sutolala (2019-06-12),Szeleii (2019-06-14),Szellem (2019-06-12),szilvaszili (2019-06-12),trest666 (2019-06-18),wolfattila (2019-06-13),xymat12 (2019-06-12),zozo80 (2019-06-12)

 

 

Jogosultságok

  • Nem nyithatsz Új Témát
  • Nem válaszolhatsz a Témában
  • Nem csatolhatsz állományt
  • Nem szerkesztheted a Hozzászólásaid
  •