Results 1 to 1 of 1
  1. #1
    Status
    Offline
    666bomba's Avatar
    Adminisztrátor
    Csatlakozott
    15-05-12
    Lakhely
    Datalinkek fórum :)
    Hozzászólások
    817
    Halott Témáim
    Nem, Újraélesztem
    Köszönöm
    599
    29.403 Kapott Köszi 805 Témáért

    A pillangó (Le papillon, The Butterfly)

    A pillangó
    (Le papillon, The Butterfly)




    Megjelenés éve: 2002
    Rendező: Philippe Muyl
    Szereplők: Michel Serrault, Claire Bouanich, Nade Dieu, Jacques Bouanich, Jerry Lucas
    Ország: Franciaország
    Hossz: 79 perc
    Címkék: kaland, vígjáték, dráma



    A pillangó
    (Le papillon, The Butterfly)

    francia vígjáték, 79 perc, 2002
    Hangsáv: magyar 5.1



    Elsa (Claire Bouanich), a kilencesztendős kislány egyedül él nemtörődöm anyukájával, aki a suli után rendre elfelejt érte menni. Julien (Michel Serrault), a hasonlóan magányos öregember szárnyai alá veszi a szomszédjában lakó cserfes kislányt, és egy olyan kirándulásra viszi az Alpokba, mely mindkettejük életét gyökerestől megváltoztatja. Míg az Isabella nevű ritka pillangófaj nyomában járnak, életre szóló barátság szövődik Elsa és Julien között.


      Spoiler: inf 
    General
    Unique ID : 227852100908646378437201937989174880755 (0xAB6AB7E944D4628E87CDD4039B60E9F3)
    Complete name : F:\1 kész\A pillangó\A pillangó.mkv
    Format : Matroska
    Format version : Version 4 / Version 2
    File size : 1.05 GiB
    Duration : 1h 19mn
    Overall bit rate : 1 890 Kbps
    Encoded date : UTC 2017-08-01 18:52:55
    Writing application : mkvmerge v8.3.0 ('Over the Horizon') 64bit
    Writing library : libebml v1.3.1 + libmatroska v1.4.2
    DURATION : 01:19:27.392000000
    NUMBER_OF_FRAMES : 148981
    NUMBER_OF_BYTES : 228834816
    _STATISTICS_WRITING_APP : mkvmerge v8.3.0 ('Over the Horizon') 64bit
    _STATISTICS_WRITING_DATE_UTC : 2017-08-01 18:52:55
    _STATISTICS_TAGS : BPS DURATION NUMBER_OF_FRAMES NUMBER_OF_BYTES

    Video
    ID : 1
    Format : AVC
    Format/Info : Advanced Video Codec
    Format profile : High@L4.1
    Format settings, CABAC : Yes
    Format settings, ReFrames : 8 frames
    Codec ID : V_MPEG4/ISO/AVC
    Duration : 1h 19mn
    Bit rate : 1 469 Kbps
    Width : 720 pixels
    Height : 554 pixels
    Display aspect ratio : 1.85:1
    Original display aspect ratio : 4:3
    Frame rate mode : Constant
    Frame rate : 25.000 fps
    Color space : YUV
    Chroma subsampling : 4:2:0
    Bit depth : 8 bits
    Scan type : Progressive
    Bits/(Pixel*Frame) : 0.147
    Stream size : 835 MiB (78%)
    Writing library : x264 core 146 r2538bm 121396c
    Encoding settings : cabac=1 / ref=8 / deblock=1:-1:-1 / analyse=0x3:0x133 / me=umh / subme=9 / psy=1 / psy_rd=1.00:0.15 / mixed_ref=1 / me_range=16 / chroma_me=1 / trellis=2 / 8x8dct=1 / cqm=0 / deadzone=21,11 / fast_pskip=1 / chroma_qp_offset=-3 / threads=12 / lookahead_threads=1 / sliced_threads=0 / nr=0 / decimate=1 / interlaced=0 / bluray_compat=0 / constrained_intra=0 / bframes=3 / b_pyramid=2 / b_adapt=2 / b_bias=0 / direct=3 / weightb=1 / open_gop=0 / weightp=2 / keyint=250 / keyint_min=25 / scenecut=40 / intra_refresh=0 / rc_lookahead=60 / rc=crf / mbtree=1 / crf=20.0 / qcomp=0.60 / qpmin=0 / qpmax=69 / qpstep=4 / ip_ratio=1.40 / aq=1:1.00
    Default : Yes
    Forced : No

    Audio
    ID : 2
    Format : AC-3
    Format/Info : Audio Coding 3
    Mode extension : CM (complete main)
    Format settings, Endianness : Big
    Codec ID : A_AC3
    Duration : 1h 19mn
    Bit rate mode : Constant
    Bit rate : 384 Kbps
    Channel(s) : 6 channels
    Channel positions : Front: L C R, Side: L R, LFE
    Sampling rate : 48.0 KHz
    Bit depth : 16 bits
    Compression mode : Lossy
    Stream size : 218 MiB (20%)
    Default : Yes
    Forced : No








    **Rejtett tartalom: Klikkelj a Köszönöm gombra, ha szeretnéd látni**


    Hasonló témák:
    Last edited by 666bomba; 2019-04-15 at 16:24.
    Ha törölt témát találsz az oldalon , használd a
    gombot!

    Minden esetben a jelszavam: 666bomba
    Az oldallal kapcsolatos dolgokkal bármikor kereshetsz privátban , találunk rá megoldást.
    Letöltővezérló ajánlás : http://www.mipony.net/



  2. Eddig 15 Felhasználó mondott köszönetet 666bomba felhaszlálónak ezért a témáért:

    ceanka (2019-04-15),EasyRyder (2019-04-15),Hestia01 (2019-04-15),jacquestati (2019-05-01),karo (2019-04-15),lolli (2019-05-09),Luna_hu (2019-04-19),marionett (2019-04-16),Mili (2019-04-19),mszabee (2019-04-17),papi26 (2019-04-16),pjani (2019-04-15),sejhaj (2019-04-16),sobotka (2019-04-15),thorvath812 (2019-04-22)

 

 

Jogosultságok

  • Nem nyithatsz Új Témát
  • Nem válaszolhatsz a Témában
  • Nem csatolhatsz állományt
  • Nem szerkesztheted a Hozzászólásaid
  •