Page 4 of 4 FirstFirst ... 234
Results 31 to 32 of 32
  1. #1
    Status
    Offline
    papadi's Avatar
    Feltöltő
    Csatlakozott
    14-04-20
    Hozzászólások
    2.830
    Halott Témáim
    Igen, Törölhető
    Köszönöm
    351
    20.019 Kapott Köszi 2.599 Témáért

    Magyar filmek gyűjteménye 1-30



    A gyűjtemény a következő filmeket tartalmazza:

    1. A tizedes meg a többiek
    2. A legényanya
    3. Portugál
    4. Pacsirta
    5. Szent Péter esernyője
    6. Mici néni két élete
    7. Banánhéjkeringő
    8. Édes Anna
    9. Két félidő a pokolban
    10. Hattyúdal
    11. Hahó, Öcsi!
    12. Hahó, a tenger!
    13. Kincskereső kisködmön
    14. Budapesti mesék
    15. Szabadíts meg a gonosztól!
    16. Idő van
    17. A skorpió megeszi az ikreket reggelire
    18. Én vagyok Jeromos
    19. Falfúró
    20. A turné
    21. Ripacsok
    22. Kopaszkutya (+ Privát rocktörténet: Hobo Blues Band)
    23. Talpuk alatt fütyül a szél
    24. Szerencsés Dániel
    25. Uramisten
    26. Eldorádó
    27. Szamárköhögés
    28. Régi idők focija
    29. Bogáncs
    30. Rosszemberek

    Hasonló témák:

    • Eddig 10 Felhasználó mondott köszönetet papadi felhaszlálónak ezért a témáért:

      adori (2019-09-01),Endy4 (2019-01-25),flamoo (2019-04-16),limboo (2019-03-15),lupus5801 (2019-03-20),marschmrk (2019-01-04),mihalyozsvath (2019-09-30),olajbogyo (2019-09-09),RIKUS1966 (2019-10-12)

    • #31
      Status
      Offline
      papadi's Avatar
      Feltöltő
      Csatlakozott
      14-04-20
      Hozzászólások
      2.830
      Halott Témáim
      Igen, Törölhető
      Köszönöm
      351
      20.019 Kapott Köszi 2.599 Témáért


      Bogáncs
      Fekete-fehér magyar film (1958)
      Főszereplők: Makláry Zoltán, Barsi Béla, Vass Éva, Szabó Ernő, Kiss Ferenc
      Rendezte: Fejér Tamás
      Magyar filmek gyűjteménye 29.
      Fantasy Film, 2007. január 12.

      Tartalom a borítóról:
      Bogáncs nemzetsége már ősidők óta kiválóan teljesíti szolgálatát a somodorpusztai pásztorok mellett. Egyszer azonban a kis puli túl messzire kóborol az erdőben, s csapdába kerül. Cirkuszosok szabadítják ki, és ettől kezdve Bogáncs élete kalandos fordulatot vesz. Kiderül, hogy a kutyus nem csak a birkaterelésben, de a cirkuszi komédiázásban is igen tehetséges. Ám sajnos a jólelkű mutatványosok is elveszítik őt. Bogáncs sintérkézre kerül. Mi lesz most nélküle a cirkuszi produkcióval? És vajon Mihály bácsi, a szőrösszívű kutyapecér valóban elpusztítja a kiskutyát? Vagy eredménnyel jár Máté, az öreg pásztor kutatása?



      Formátum: dvdrip/avi
      Méret: 797 MB
      Felbontás: 720x544
      Mintavételi frekvencia: 48000 Hz
      Bitsebesség: 128 kbps
      Műsoridő: 1:19:56

        Spoiler: Részletes média információ: 


      I:\Video\29 - Bogáncs.avi
      General
      Complete name : I:\Video\29 - Bogáncs.avi
      Format : AVI
      Format/Info : Audio Video Interleave
      File size : 796 MiB
      Duration : 1 h 19 min
      Overall bit rate : 1 393 kb/s
      Writing application : VirtualDubMod 1.5.4.1 (build 2178/release)
      Writing library : VirtualDubMod build 2178/release
      Video #0
      ID : 0
      Format : MPEG-4 Visual
      Format profile : Advanced Simple@L5
      Format settings, BVOP : 1
      Format settings, QPel : No
      Format settings, GMC : No warppoints
      Format settings, Matrix : Custom
      Codec ID : XVID
      Codec ID/Hint : XviD
      Duration : 1 h 19 min
      Bit rate : 1 257 kb/s
      Width : 720 pixels
      Height : 544 pixels
      Display aspect ratio : 4:3
      Frame rate : 25.000 FPS
      Color space : YUV
      Chroma subsampling : 4:2:0
      Bit depth : 8 bits
      Scan type : Progressive
      Compression mode : Lossy
      Bits/(Pixel*Frame) : 0.128
      Stream size : 719 MiB (90%)
      Writing library : XviD 1.2.1 (UTC 2008-12-04)
      Audio #1
      ID : 1
      Format : MPEG Audio
      Format version : Version 1
      Format profile : Layer 3
      Mode : Joint stereo
      Mode extension : MS Stereo
      Codec ID : 55
      Codec ID/Hint : MP3
      Duration : 1 h 19 min
      Bit rate mode : Constant
      Bit rate : 128 kb/s
      Channel(s) : 2 channels
      Sampling rate : 48.0 kHz
      Compression mode : Lossy
      Stream size : 73.2 MiB (9%)
      Alignment : Aligned on interleaves
      Interleave, duration : 80 ms (2.00 video frames)
      Interleave, preload duration : 504 ms
      Writing library : LAME3.98r
      Encoding settings : -m j -V 4 -q 2 -lowpass 17 -b 128


      Code: 

      Link megtekintéséhez LÉPJ BE vagy REGISZTRÁLJ az oldalra

      vagy free
      Code: 

      Link megtekintéséhez LÉPJ BE vagy REGISZTRÁLJ az oldalra




    • Eddig 3 Felhasználó mondott köszönetet papadi felhaszlálónak ezért a témáért:

      antalka (2019-02-02),baberfa (2019-01-04),Endy4 (2019-01-25)

    • #32
      Status
      Offline
      papadi's Avatar
      Feltöltő
      Csatlakozott
      14-04-20
      Hozzászólások
      2.830
      Halott Témáim
      Igen, Törölhető
      Köszönöm
      351
      20.019 Kapott Köszi 2.599 Témáért


      Rosszemberek
      Magyar film (1978)
      Főszereplők: Dzsokó Roszics (Djoko Rosic), Kiss Mari, Derzsi János, Dörner György fh., Szabó László
      Rendezte: Szomjas György
      Magyar filmek gyűjteménye 30.
      Fantasy Film, 2007. január 12.

      Tartalom a borítóról:
      A kiegyezés előtti időkben járunk. Gelencsér Jóska, a hírhedt betyár szegénylegényekből verbuvált csapatával a környék összes Habsburg-barát nemesét végigrabolta már. A környező tanyák nincstelen lakói kiskirályként bánnak a fosztogató banda tagjaival. A hatóság emberei viszont aggódnak: ameddig ilyen barbár állapotok uralkodnak a vidéken, addig nem mernek vasútépítésbe kezdeni, pedig ez nélkülözhetetlen volna a gazdasági fejlődéshez.
      Amikor Jóska kegyetlenül végez a marcali bíróval, öccse gyilkosával, betelik a pohár. Hegyessy főszolgabírót utasítják felettesei, hogy bármi áron számoljon le a bandával. Gelencsér azonban nem adja könnyen a bőrét, a banda az utolsó emberig küzd. A lövöldözésben sok csendőr is vérével fizet a békéért, a betyárok dicsősége pedig mindörökre leáldozik.




      Formátum: dvdrip/avi
      Méret: 894 MB
      Felbontás: 720x544
      Mintavételi frekvencia: 48000 Hz
      Bitsebesség: 128 kbps
      Műsoridő: 1:29:09

        Spoiler: Részletes média információ: 


      I:\Video\30 - Rosszemberek.avi
      General
      Complete name : I:\Video\30 - Rosszemberek.avi
      Format : AVI
      Format/Info : Audio Video Interleave
      File size : 890 MiB
      Duration : 1 h 29 min
      Overall bit rate : 1 395 kb/s
      Writing application : VirtualDubMod 1.5.4.1 (build 2178/release)
      Writing library : VirtualDubMod build 2178/release
      Video #0
      ID : 0
      Format : MPEG-4 Visual
      Format profile : Advanced Simple@L5
      Format settings, BVOP : 1
      Format settings, QPel : No
      Format settings, GMC : No warppoints
      Format settings, Matrix : Custom
      Codec ID : XVID
      Codec ID/Hint : XviD
      Duration : 1 h 29 min
      Bit rate : 1 260 kb/s
      Width : 720 pixels
      Height : 544 pixels
      Display aspect ratio : 4:3
      Frame rate : 25.000 FPS
      Color space : YUV
      Chroma subsampling : 4:2:0
      Bit depth : 8 bits
      Scan type : Progressive
      Compression mode : Lossy
      Bits/(Pixel*Frame) : 0.129
      Stream size : 803 MiB (90%)
      Writing library : XviD 1.2.1 (UTC 2008-12-04)
      Audio #1
      ID : 1
      Format : MPEG Audio
      Format version : Version 1
      Format profile : Layer 3
      Mode : Joint stereo
      Mode extension : MS Stereo
      Codec ID : 55
      Codec ID/Hint : MP3
      Duration : 1 h 29 min
      Bit rate mode : Constant
      Bit rate : 128 kb/s
      Channel(s) : 2 channels
      Sampling rate : 48.0 kHz
      Compression mode : Lossy
      Stream size : 81.6 MiB (9%)
      Alignment : Aligned on interleaves
      Interleave, duration : 80 ms (2.00 video frames)
      Interleave, preload duration : 504 ms
      Writing library : LAME3.98r
      Encoding settings : -m j -V 4 -q 2 -lowpass 17 -b 128


      Code: 

      Link megtekintéséhez LÉPJ BE vagy REGISZTRÁLJ az oldalra

      vagy free
      Code: 

      Link megtekintéséhez LÉPJ BE vagy REGISZTRÁLJ az oldalra




    • Eddig 3 Felhasználó mondott köszönetet papadi felhaszlálónak ezért a témáért:

      antalka (2019-02-02),Comondor (2019-01-04),Endy4 (2019-01-25)

     

     

    Jogosultságok

    • Nem nyithatsz Új Témát
    • Nem válaszolhatsz a Témában
    • Nem csatolhatsz állományt
    • Nem szerkesztheted a Hozzászólásaid
    •