Page 1 of 4 123 ... LastLast
Results 1 to 10 of 32
  1. #1
    Status
    Offline
    papadi's Avatar
    Feltöltő
    Csatlakozott
    14-04-20
    Hozzászólások
    2.539
    Halott Témáim
    Igen, Törölhető
    Köszönöm
    394
    12.261 Kapott Köszi 2.283 Témáért

    Magyar filmek gyűjteménye 1-30



    A gyűjtemény a következő filmeket tartalmazza:

    1. A tizedes meg a többiek
    2. A legényanya
    3. Portugál
    4. Pacsirta
    5. Szent Péter esernyője
    6. Mici néni két élete
    7. Banánhéjkeringő
    8. Édes Anna
    9. Két félidő a pokolban
    10. Hattyúdal
    11. Hahó, Öcsi!
    12. Hahó, a tenger!
    13. Kincskereső kisködmön
    14. Budapesti mesék
    15. Szabadíts meg a gonosztól!
    16. Idő van
    17. A skorpió megeszi az ikreket reggelire
    18. Én vagyok Jeromos
    19. Falfúró
    20. A turné
    21. Ripacsok
    22. Kopaszkutya (+ Privát rocktörténet: Hobo Blues Band)
    23. Talpuk alatt fütyül a szél
    24. Szerencsés Dániel
    25. Uramisten
    26. Eldorádó
    27. Szamárköhögés
    28. Régi idők focija
    29. Bogáncs
    30. Rosszemberek

    Hasonló témák:

  2. Eddig 6 Felhasználó mondott köszönetet papadi felhaszlálónak ezért a témáért:

    Endy4 (2019-01-25),flamoo (2019-04-16),limboo (2019-03-15),lupus5801 (2019-03-20),marschmrk (2019-01-04),Rangboss (2019-06-06)

  3. #2
    Status
    Offline
    papadi's Avatar
    Feltöltő
    Csatlakozott
    14-04-20
    Hozzászólások
    2.539
    Halott Témáim
    Igen, Törölhető
    Köszönöm
    394
    12.261 Kapott Köszi 2.283 Témáért


    A tizedes meg a többiek
    Fekete-fehér háborús komédia (1965)
    Főszereplők: Major Tamás, Sinkovits Imre, Darvas Iván, Pálos György, Ungváry László, Kozák László, Szabó Gyula, Márkus László, Horváth Tivadar, Cs. Németh Lajos
    Rendező: Keleti Márton
    Magyar filmek gyűjteménye 1.
    Fantasy Film, 2006. október 2.

    Tartalom a borítóról:
    Molnár tizedes (Sinkovits Imre) úgy dönt, hogy a maga részéről befejezettnek nyilvánítja a II. Világháborús részvételét és kézigránátokba rejtett zsoldjával a nyakában olajra lép. Egy kastélyban próbál elrejtőzni, melynek fenntartását egy meglehetősen pikírt inasra, Albertre (Major Tamás) bízták rá. Pechjére a jó kis búvóhely tele van katonaszökevényekkel, akik szintén a lelépés mellett döntöttek. Molnár átveszi a parancsnokságot és a dezertőr szakasz élén hamarosan több életveszélyes feladat szakad a nyakába, mint addig összesen: ha kell, honvédeknek adják ki magukat, szovjet katonát mentenek meg, a nyilasokkal harcolnak.
    Hiába sikerül túljárni mindenki eszén, végül ők is a szovjet hadifogságban végzik, ahol partizán szabadcsapatot szerveznek…




    Formátum: dvdrip/avi
    Méret: 0,98 GB
    Felbontás: 720x544
    Mintavételi frekvencia: 48000 Hz
    Bitsebesség: 128 kbps
    Műsoridő: 1:40:46


      Spoiler: Részletes média információ: 

    I:\Video\01 - A tizedes meg a többiek.avi
    General
    Complete name : I:\Video\01 - A tizedes meg a többiek.avi
    Format : AVI
    Format/Info : Audio Video Interleave
    File size : 1 006 MiB
    Duration : 1 h 40 min
    Overall bit rate : 1 396 kb/s
    Writing application : VirtualDubMod 1.5.4.1 (build 2178/release)
    Writing library : VirtualDubMod build 2178/release
    Video #0
    ID : 0
    Format : MPEG-4 Visual
    Format profile : Advanced Simple@L5
    Format settings, BVOP : 1
    Format settings, QPel : No
    Format settings, GMC : No warppoints
    Format settings, Matrix : Custom
    Codec ID : XVID
    Codec ID/Hint : XviD
    Duration : 1 h 40 min
    Bit rate : 1 260 kb/s
    Width : 720 pixels
    Height : 544 pixels
    Display aspect ratio : 4:3
    Frame rate : 25.000 FPS
    Color space : YUV
    Chroma subsampling : 4:2:0
    Bit depth : 8 bits
    Scan type : Progressive
    Compression mode : Lossy
    Bits/(Pixel*Frame) : 0.129
    Stream size : 908 MiB (90%)
    Writing library : XviD 1.2.1 (UTC 2008-12-04)
    Audio #1
    ID : 1
    Format : MPEG Audio
    Format version : Version 1
    Format profile : Layer 3
    Mode : Joint stereo
    Mode extension : MS Stereo
    Codec ID : 55
    Codec ID/Hint : MP3
    Duration : 1 h 40 min
    Bit rate mode : Constant
    Bit rate : 128 kb/s
    Channel(s) : 2 channels
    Sampling rate : 48.0 kHz
    Compression mode : Lossy
    Stream size : 92.3 MiB (9%)
    Alignment : Aligned on interleaves
    Interleave, duration : 80 ms (2.00 video frames)
    Interleave, preload duration : 504 ms
    Writing library : LAME3.98r
    Encoding settings : -m j -V 4 -q 2 -lowpass 17 -b 128



    Code: 

    Link megtekintéséhez LÉPJ BE vagy REGISZTRÁLJ az oldalra

    vagy free
    Code: 

    Link megtekintéséhez LÉPJ BE vagy REGISZTRÁLJ az oldalra




  4. Eddig 4 Felhasználó mondott köszönetet papadi felhaszlálónak ezért a témáért:

    antalka (2019-02-02),baberfa (2019-01-04),borbely64 (2019-01-12),Endy4 (2019-01-25)

  5. #3
    Status
    Offline
    papadi's Avatar
    Feltöltő
    Csatlakozott
    14-04-20
    Hozzászólások
    2.539
    Halott Témáim
    Igen, Törölhető
    Köszönöm
    394
    12.261 Kapott Köszi 2.283 Témáért


    A legényanya
    Fekete-fehér magyar vígjáték (1990)
    Főszereplők: Kállai Ferenc, Eperjes Károly, Pogány Judit, Garas Dezső, Kibédi Ervin, Horváth József, Eszenyi Enikő, Andorai Péter
    Rendezte: Garas Dezső
    Magyar filmek gyűjteménye 2.
    Fantasy Film, 2006. október 2.

    Tartalom a borítóról:
    Nagy a felzúdulás Rátóton, mert Rozi újszülött fiúgyermekének a Józsi nevet merte adni és nem a pedig Bélát! A hagyomány szerint minden újszülött fiút kötelesek Bélának keresztelni a tanácselnök neve után. Szegény Józsi (Eperjes Károly) ilyen világban kell, hogy felcseperedjen, de végül is csak fölnő az istenadta. Csak a lányok nem érdeklik ezt a kissé fura legényt. Az Úr meghallgatja édesanyja imáit és mivel ő maga nem ér rá, Ágikát (Eszenyi Enikő) küldi maga helyett segítségül, akitől Józsi hamarosan teherbe esik. A falu elöljárói nem akarnak újabb rátóti csodát, és ki akarják közösíteni őt, a legényanya ennek ellenére világra hozza gyermekét…



    Formátum: dvdrip/avi
    Méret: 754 MB
    Felbontás: 720x544
    Mintavételi frekvencia: 48000 Hz
    Bitsebesség: 128 kbps
    Műsoridő: 1:15:22


      Spoiler: Részletes média információ: 

    I:\Video\02 - A legényanya.avi
    General
    Complete name : I:\Video\02 - A legényanya.avi
    Format : AVI
    Format/Info : Audio Video Interleave
    File size : 753 MiB
    Duration : 1 h 15 min
    Overall bit rate : 1 397 kb/s
    Writing application : VirtualDubMod 1.5.4.1 (build 2178/release)
    Writing library : VirtualDubMod build 2178/release
    Video #0
    ID : 0
    Format : MPEG-4 Visual
    Format profile : Advanced Simple@L5
    Format settings, BVOP : 1
    Format settings, QPel : No
    Format settings, GMC : No warppoints
    Format settings, Matrix : Custom
    Codec ID : XVID
    Codec ID/Hint : XviD
    Duration : 1 h 15 min
    Bit rate : 1 261 kb/s
    Width : 720 pixels
    Height : 544 pixels
    Display aspect ratio : 4:3
    Frame rate : 25.000 FPS
    Color space : YUV
    Chroma subsampling : 4:2:0
    Bit depth : 8 bits
    Scan type : Progressive
    Compression mode : Lossy
    Bits/(Pixel*Frame) : 0.129
    Stream size : 680 MiB (90%)
    Writing library : XviD 1.2.1 (UTC 2008-12-04)
    Audio #1
    ID : 1
    Format : MPEG Audio
    Format version : Version 1
    Format profile : Layer 3
    Mode : Joint stereo
    Mode extension : MS Stereo
    Codec ID : 55
    Codec ID/Hint : MP3
    Duration : 1 h 15 min
    Bit rate mode : Constant
    Bit rate : 128 kb/s
    Channel(s) : 2 channels
    Sampling rate : 48.0 kHz
    Compression mode : Lossy
    Stream size : 69.0 MiB (9%)
    Alignment : Aligned on interleaves
    Interleave, duration : 80 ms (2.00 video frames)
    Interleave, preload duration : 504 ms
    Writing library : LAME3.98r
    Encoding settings : -m j -V 4 -q 2 -lowpass 17 -b 128


    Code: 

    Link megtekintéséhez LÉPJ BE vagy REGISZTRÁLJ az oldalra

    vagy free
    Code: 

    Link megtekintéséhez LÉPJ BE vagy REGISZTRÁLJ az oldalra




  6. Eddig 5 Felhasználó mondott köszönetet papadi felhaszlálónak ezért a témáért:

    antalka (2019-02-02),borbely64 (2019-01-12),Comondor (2019-01-04),Endy4 (2019-01-25),xenilla (2019-02-04)

  7. #4
    Status
    Offline
    papadi's Avatar
    Feltöltő
    Csatlakozott
    14-04-20
    Hozzászólások
    2.539
    Halott Témáim
    Igen, Törölhető
    Köszönöm
    394
    12.261 Kapott Köszi 2.283 Témáért


    Portugál
    Színes magyar vígjáték (1999)
    Főszereplők: Csuja Imre, Pelsőczy Réka, Szirtes Ági, Lengyel Ferenc, Varga Zoltán, Kelemen József, Kovács Zsolt, Nagy Viktor, Ónodi Eszter
    Rendezte: Lukáts Andor
    Magyar filmek gyűjteménye 3.
    Fantasy Film, 2006. október 2.

    Tartalom a borítóról:
    Rozzant kocsma Igrácson, a falu közepén. A település prominens képviselői itt múlatják idejüket néhány feles kíséretében. Sok izgalom nemigen történik errefelé, hacsak egy évtizedben egyszer oda nem vetődik egy idegen. És lőn csoda: betér a kocsmába egy fiatal esszéíró, aki épp Portugália felé vette az irányt, hogy meneküljön romokban heverő házasságából. Pechjére beleszeret Masniba, a kocsmáros lányába, így továbbutazását bizonytalan időre elhalasztja. Ennek cseppet sem örül Retek, az egykoron kényszervallatás miatt kirúgott rendőr, aki egyébként Masni vőlegénye. Ráadásul hamarosan megérkezik a hisztiző elhagyott feleség is.



    Formátum: dvdrip/avi
    Méret: 971 MB
    Felbontás: 720x464
    Mintavételi frekvencia: 48000 Hz
    Bitsebesség: 128 kbps
    Műsoridő: 1:37:13


      Spoiler: Részletes média információ: 

    I:\Video\03 - Portugál.avi
    General
    Complete name : I:\Video\03 - Portugál.avi
    Format : AVI
    Format/Info : Audio Video Interleave
    File size : 970 MiB
    Duration : 1 h 37 min
    Overall bit rate : 1 395 kb/s
    Writing application : VirtualDubMod 1.5.4.1 (build 2178/release)
    Writing library : VirtualDubMod build 2178/release
    Video #0
    ID : 0
    Format : MPEG-4 Visual
    Format profile : Advanced Simple@L5
    Format settings, BVOP : 1
    Format settings, QPel : No
    Format settings, GMC : No warppoints
    Format settings, Matrix : Custom
    Codec ID : XVID
    Codec ID/Hint : XviD
    Duration : 1 h 37 min
    Bit rate : 1 260 kb/s
    Width : 720 pixels
    Height : 464 pixels
    Display aspect ratio : 16:10
    Frame rate : 25.000 FPS
    Color space : YUV
    Chroma subsampling : 4:2:0
    Bit depth : 8 bits
    Scan type : Progressive
    Compression mode : Lossy
    Bits/(Pixel*Frame) : 0.151
    Stream size : 876 MiB (90%)
    Writing library : XviD 1.2.1 (UTC 2008-12-04)
    Audio #1
    ID : 1
    Format : MPEG Audio
    Format version : Version 1
    Format profile : Layer 3
    Mode : Joint stereo
    Mode extension : MS Stereo
    Codec ID : 55
    Codec ID/Hint : MP3
    Duration : 1 h 37 min
    Bit rate mode : Constant
    Bit rate : 128 kb/s
    Channel(s) : 2 channels
    Sampling rate : 48.0 kHz
    Compression mode : Lossy
    Stream size : 89.0 MiB (9%)
    Alignment : Aligned on interleaves
    Interleave, duration : 80 ms (2.00 video frames)
    Interleave, preload duration : 504 ms
    Writing library : LAME3.98r
    Encoding settings : -m j -V 4 -q 2 -lowpass 17 -b 128


    Code: 

    Link megtekintéséhez LÉPJ BE vagy REGISZTRÁLJ az oldalra

    vagy free
    Code: 

    Link megtekintéséhez LÉPJ BE vagy REGISZTRÁLJ az oldalra




  8. Eddig 5 Felhasználó mondott köszönetet papadi felhaszlálónak ezért a témáért:

    antalka (2019-02-02),borbely64 (2019-01-12),Comondor (2019-01-04),Endy4 (2019-01-25),rumci2 (2019-05-31)

  9. #5
    Status
    Offline
    papadi's Avatar
    Feltöltő
    Csatlakozott
    14-04-20
    Hozzászólások
    2.539
    Halott Témáim
    Igen, Törölhető
    Köszönöm
    394
    12.261 Kapott Köszi 2.283 Témáért


    Pacsirta
    Fekete-fehér magyar dráma (1963)
    Főszereplők: Tolnay Klári, Páger Antal, Nagy Anna, Törőcsik Mari, Bara Margit, Latinovits Zoltán, Bessenyei Ferenc, Darvas Iván, Greguss Zoltán, Szakács Sándor
    Rendezte: Ranódy László
    Magyar filmek gyűjteménye 4.
    Fantasy Film, 2006. október 5.

    Tartalom a borítóról:
    Kosztolányi Dezső regénye a Vajkay család tragikus történetét dolgozza fel. Vajkay Ákos (Páger Antal) és felesége (Tolnay Klári) évek óta abban reménykednek, hogy csúf és szerencsétlen sorsú lányukat, Pacsirtát végre sikerül férjhez adniuk. A család egy ideje szinte ki sem mozdul otthonából, még a tükröket is eltakarják, hogy ne szembesüljenek a valósággal: amíg Pacsirta a nyakukon marad, semmi esélyük a boldog és normális életre. Egy napon a lányt elküldik pár napra a rokonokhoz, hátha sikerül férjet találni ott neki. A magára maradt házaspár előtt hamar kinyílik a világ: ismét összetalálkoznak régi barátaikkal, színházba járnak, társasági életet élnek, de mindvégig ott van bennük a szörnyű tudat, hogy ez a boldogság csak addig tarthat, amíg Pacsirta vissza nem tér a szülői házba…



    Formátum: dvdrip/avi
    Méret: 969 MB
    Felbontás: 720x544
    Mintavételi frekvencia: 48000 Hz
    Bitsebesség: 128 kbps
    Műsoridő: 1:36:56

      Spoiler: Részletes média információ: 


    I:\Video\04 - Pacsirta.avi
    General
    Complete name : I:\Video\04 - Pacsirta.avi
    Format : AVI
    Format/Info : Audio Video Interleave
    File size : 968 MiB
    Duration : 1 h 36 min
    Overall bit rate : 1 396 kb/s
    Writing application : VirtualDubMod 1.5.4.1 (build 2178/release)
    Writing library : VirtualDubMod build 2178/release
    Video #0
    ID : 0
    Format : MPEG-4 Visual
    Format profile : Advanced Simple@L5
    Format settings, BVOP : 1
    Format settings, QPel : No
    Format settings, GMC : No warppoints
    Format settings, Matrix : Custom
    Codec ID : XVID
    Codec ID/Hint : XviD
    Duration : 1 h 36 min
    Bit rate : 1 261 kb/s
    Width : 720 pixels
    Height : 544 pixels
    Display aspect ratio : 4:3
    Frame rate : 25.000 FPS
    Color space : YUV
    Chroma subsampling : 4:2:0
    Bit depth : 8 bits
    Scan type : Progressive
    Compression mode : Lossy
    Bits/(Pixel*Frame) : 0.129
    Stream size : 874 MiB (90%)
    Writing library : XviD 1.2.1 (UTC 2008-12-04)
    Audio #1
    ID : 1
    Format : MPEG Audio
    Format version : Version 1
    Format profile : Layer 3
    Mode : Joint stereo
    Mode extension : MS Stereo
    Codec ID : 55
    Codec ID/Hint : MP3
    Duration : 1 h 36 min
    Bit rate mode : Constant
    Bit rate : 128 kb/s
    Channel(s) : 2 channels
    Sampling rate : 48.0 kHz
    Compression mode : Lossy
    Stream size : 88.8 MiB (9%)
    Alignment : Aligned on interleaves
    Interleave, duration : 80 ms (2.00 video frames)
    Interleave, preload duration : 504 ms
    Writing library : LAME3.98r
    Encoding settings : -m j -V 4 -q 2 -lowpass 17 -b 128


    Code: 

    Link megtekintéséhez LÉPJ BE vagy REGISZTRÁLJ az oldalra

    vagy free
    Code: 

    Link megtekintéséhez LÉPJ BE vagy REGISZTRÁLJ az oldalra




  10. Eddig 4 Felhasználó mondott köszönetet papadi felhaszlálónak ezért a témáért:

    antalka (2019-02-02),borbely64 (2019-01-12),Comondor (2019-01-04),Endy4 (2019-01-25)

  11. #6
    Status
    Offline
    papadi's Avatar
    Feltöltő
    Csatlakozott
    14-04-20
    Hozzászólások
    2.539
    Halott Témáim
    Igen, Törölhető
    Köszönöm
    394
    12.261 Kapott Köszi 2.283 Témáért


    Szent Péter esernyője
    Színes magyar-csehszlovák film (1958)
    Főszereplők: Pécsi Sándor, Törőcsik Mari, Karol Machata, Rajz János, Samuel Adamcik, Ján Bzdúch
    Rendezte: Bán Frigyes
    Magyar filmek gyűjteménye 5.
    Fantasy Film, 2006. október 5.

    Tartalom a borítóról:
    Gregorics, a volt kém még halála után is tud meglepetéseket okozni: rokonai helyett házasságon kívül született gyermekére, Gyurkára hagyja minden vagyonát. Az értékpapírokat az öreg elmaradhatatlan esernyőjének nyelébe rejtette, ám a rokonok ezt nem tudják, és megszabadulnak a kacattól. Az öreg Müncz, az ószeres ezt az ernyőt teszi a glogovai plébános húgocskája fölé a záporban. A falubeliek a csodát Szent Péternek tulajdonítják, az esernyőt nagy becsben tartják. A gyerekek felcseperednek, Gyurka kideríti, hogy hol lehet az öröksége - amit Veronikával való házassága útján próbál megszerezni. Félreértések követik egymást, de végül minden kiderül. A vagyon ugyan elveszett, de a fiatalok egymásra találnak.



    Formátum: dvdrip/avi
    Méret: 856 MB
    Felbontás: 720x544
    Mintavételi frekvencia: 48000 Hz
    Bitsebesség: 128 kbps
    Műsoridő: 1:25:34

      Spoiler: Részletes média információ: 


    I:\Video\05 - Szent Péter esernyöje.avi
    General
    Complete name : I:\Video\05 - Szent Péter esernyöje.avi
    Format : AVI
    Format/Info : Audio Video Interleave
    File size : 854 MiB
    Duration : 1 h 25 min
    Overall bit rate : 1 396 kb/s
    Writing application : VirtualDubMod 1.5.4.1 (build 2178/release)
    Writing library : VirtualDubMod build 2178/release
    Video #0
    ID : 0
    Format : MPEG-4 Visual
    Format profile : Advanced Simple@L5
    Format settings, BVOP : 1
    Format settings, QPel : No
    Format settings, GMC : No warppoints
    Format settings, Matrix : Custom
    Codec ID : XVID
    Codec ID/Hint : XviD
    Duration : 1 h 25 min
    Bit rate : 1 261 kb/s
    Width : 720 pixels
    Height : 544 pixels
    Display aspect ratio : 4:3
    Frame rate : 25.000 FPS
    Color space : YUV
    Chroma subsampling : 4:2:0
    Bit depth : 8 bits
    Scan type : Progressive
    Compression mode : Lossy
    Bits/(Pixel*Frame) : 0.129
    Stream size : 772 MiB (90%)
    Writing library : XviD 1.2.1 (UTC 2008-12-04)
    Audio #1
    ID : 1
    Format : MPEG Audio
    Format version : Version 1
    Format profile : Layer 3
    Mode : Joint stereo
    Mode extension : MS Stereo
    Codec ID : 55
    Codec ID/Hint : MP3
    Duration : 1 h 25 min
    Bit rate mode : Constant
    Bit rate : 128 kb/s
    Channel(s) : 2 channels
    Sampling rate : 48.0 kHz
    Compression mode : Lossy
    Stream size : 78.3 MiB (9%)
    Alignment : Aligned on interleaves
    Interleave, duration : 80 ms (2.00 video frames)
    Interleave, preload duration : 504 ms
    Writing library : LAME3.98r
    Encoding settings : -m j -V 4 -q 2 -lowpass 17 -b 128


    Code: 

    Link megtekintéséhez LÉPJ BE vagy REGISZTRÁLJ az oldalra

    vagy free
    Code: 

    Link megtekintéséhez LÉPJ BE vagy REGISZTRÁLJ az oldalra




  12. Eddig 4 Felhasználó mondott köszönetet papadi felhaszlálónak ezért a témáért:

    antalka (2019-02-02),baberfa (2019-01-04),borbely64 (2019-01-12),Endy4 (2019-01-25)

  13. #7
    Status
    Offline
    papadi's Avatar
    Feltöltő
    Csatlakozott
    14-04-20
    Hozzászólások
    2.539
    Halott Témáim
    Igen, Törölhető
    Köszönöm
    394
    12.261 Kapott Köszi 2.283 Témáért


    Mici néni két élete
    Fekete-fehér magyar vígjáték (1962)
    Főszereplők: Kiss Manyi, Páger Antal, Szokolai Ottó, Tóth Judit
    Rendezte: Mamcserov Frigyes
    Magyar filmek gyűjteménye 6.
    Fantasy Film, 2006. október 2.

    Tartalom a borítóról:
    Mici néni (Kiss Manyi), az egykori díva már rég nem áll reflektorfényben, de azt még mindig nagyon szereti, ha körülrajongják. A pesti bérház lakói mindannyian arra számítanak, hogy a nagybeteget játszó öreglány egyszer majd elpatkol és megöröklik bútorait, esetleg lakását. Mici néni ügyvédje tanácsára magához vesz egy szigorúan gyerektelen és otthontalan házaspárt, akik haláláig gondját viselik. Cserébe beköltözhetnek a lakásba, ahol féltő gonddal kell teljesíteniük az ő minden óhaját. Csakhogy van egy kis bökkenő: a házaspár gyereket vár, ráadásul Mici néni is alig várja, hogy a fiatalok kitegyék a lábukat a lakásból. Ilyenkor kipattan a betegágyból és rohan randevúzni Alfréddal (Páger Antal), a sármos taxisofőrrel, akivel motorra pattannak, mulatni járnak, akárcsak a fiatalok. Ebből persze számtalan bonyodalom és mulatságos helyzet kerekedik…



    Formátum: dvdrip/avi
    Méret: 820 MB
    Felbontás: 720x544
    Mintavételi frekvencia: 48000 Hz
    Bitsebesség: 128 kbps
    Műsoridő: 1:22:06

      Spoiler: Részletes média információ: 


    I:\Video\06 - Mici néni két élete.avi
    General
    Complete name : I:\Video\06 - Mici néni két élete.avi
    Format : AVI
    Format/Info : Audio Video Interleave
    File size : 819 MiB
    Duration : 1 h 22 min
    Overall bit rate : 1 395 kb/s
    Writing application : VirtualDubMod 1.5.4.1 (build 2178/release)
    Writing library : VirtualDubMod build 2178/release
    Video #0
    ID : 0
    Format : MPEG-4 Visual
    Format profile : Advanced Simple@L5
    Format settings, BVOP : 1
    Format settings, QPel : No
    Format settings, GMC : No warppoints
    Format settings, Matrix : Custom
    Codec ID : XVID
    Codec ID/Hint : XviD
    Duration : 1 h 22 min
    Bit rate : 1 260 kb/s
    Width : 720 pixels
    Height : 544 pixels
    Display aspect ratio : 4:3
    Frame rate : 25.000 FPS
    Color space : YUV
    Chroma subsampling : 4:2:0
    Bit depth : 8 bits
    Scan type : Progressive
    Compression mode : Lossy
    Bits/(Pixel*Frame) : 0.129
    Stream size : 740 MiB (90%)
    Writing library : XviD 1.2.1 (UTC 2008-12-04)
    Audio #1
    ID : 1
    Format : MPEG Audio
    Format version : Version 1
    Format profile : Layer 3
    Mode : Joint stereo
    Mode extension : MS Stereo
    Codec ID : 55
    Codec ID/Hint : MP3
    Duration : 1 h 22 min
    Bit rate mode : Constant
    Bit rate : 128 kb/s
    Channel(s) : 2 channels
    Sampling rate : 48.0 kHz
    Compression mode : Lossy
    Stream size : 75.2 MiB (9%)
    Alignment : Aligned on interleaves
    Interleave, duration : 80 ms (2.00 video frames)
    Interleave, preload duration : 504 ms
    Writing library : LAME3.98r
    Encoding settings : -m j -V 4 -q 2 -lowpass 17 -b 128


    Code: 

    Link megtekintéséhez LÉPJ BE vagy REGISZTRÁLJ az oldalra

    vagy free
    Code: 

    Link megtekintéséhez LÉPJ BE vagy REGISZTRÁLJ az oldalra




  14. Eddig 5 Felhasználó mondott köszönetet papadi felhaszlálónak ezért a témáért:

    antalka (2019-02-02),baberfa (2019-01-04),borbely64 (2019-01-12),Comondor (2019-01-04),Endy4 (2019-01-25)

  15. #8
    Status
    Offline
    papadi's Avatar
    Feltöltő
    Csatlakozott
    14-04-20
    Hozzászólások
    2.539
    Halott Témáim
    Igen, Törölhető
    Köszönöm
    394
    12.261 Kapott Köszi 2.283 Témáért


    Banánhéjkeringő
    Magyar vígjáték (1986)
    Főszereplők: Udvaros Dorottya, Dés Mihály, Básti Juli, Torday Teri, Melis György, Garas Dezső
    Rendezte: Bacsó Péter
    Magyar filmek gyűjteménye 7.
    Fantasy Film, 2006. október 5.

    Tartalom a borítóról:
    Kondacs doktor pechsorozata és kálváriája március 15-én kezdődik, amikor épp az esküvőjére sietne, de útközben egy megkattant és mellesleg pucér lányra teríti szánalomból a kabátját. Ez olyan lavinát indít el, ami fenekestül felfordítja az életét. Az esküvője elmarad, menyasszonya kirúgja a házukból, a főnöke pedig az állásából, mivel politikailag is gyanússá válik. Innen már nincs visszaút, vagy mégis? Az elmegyógyintézet még tárt karokkal várja… Bacsó Péter, A tanú rendezőjének szatírája a rendszerváltás előtti utolsó évek elé tart görbe tükröt.



    Formátum: dvdrip/avi
    Méret: 1,02 GB
    Felbontás: 720x544
    Mintavételi frekvencia: 48000 Hz
    Bitsebesség: 128 kbps
    Műsoridő: 1:44:42

      Spoiler: Részletes média információ: 


    I:\Video\07 - Banánhéjkeringö.avi
    General
    Complete name : I:\Video\07 - Banánhéjkeringö.avi
    Format : AVI
    Format/Info : Audio Video Interleave
    File size : 1.02 GiB
    Duration : 1 h 44 min
    Overall bit rate : 1 394 kb/s
    Writing application : VirtualDubMod 1.5.4.1 (build 2178/release)
    Writing library : VirtualDubMod build 2178/release
    Video #0
    ID : 0
    Format : MPEG-4 Visual
    Format profile : Advanced Simple@L5
    Format settings, BVOP : 1
    Format settings, QPel : No
    Format settings, GMC : No warppoints
    Format settings, Matrix : Custom
    Codec ID : XVID
    Codec ID/Hint : XviD
    Duration : 1 h 44 min
    Bit rate : 1 259 kb/s
    Width : 720 pixels
    Height : 544 pixels
    Display aspect ratio : 4:3
    Frame rate : 25.000 FPS
    Color space : YUV
    Chroma subsampling : 4:2:0
    Bit depth : 8 bits
    Scan type : Progressive
    Compression mode : Lossy
    Bits/(Pixel*Frame) : 0.129
    Stream size : 943 MiB (90%)
    Writing library : XviD 1.2.1 (UTC 2008-12-04)
    Audio #1
    ID : 1
    Format : MPEG Audio
    Format version : Version 1
    Format profile : Layer 3
    Mode : Joint stereo
    Mode extension : MS Stereo
    Codec ID : 55
    Codec ID/Hint : MP3
    Duration : 1 h 44 min
    Bit rate mode : Constant
    Bit rate : 128 kb/s
    Channel(s) : 2 channels
    Sampling rate : 48.0 kHz
    Compression mode : Lossy
    Stream size : 95.9 MiB (9%)
    Alignment : Aligned on interleaves
    Interleave, duration : 80 ms (2.00 video frames)
    Interleave, preload duration : 504 ms
    Writing library : LAME3.98r
    Encoding settings : -m j -V 4 -q 2 -lowpass 17 -b 128


    Code: 

    Link megtekintéséhez LÉPJ BE vagy REGISZTRÁLJ az oldalra

    vagy free
    Code: 

    Link megtekintéséhez LÉPJ BE vagy REGISZTRÁLJ az oldalra




  16. Eddig 4 Felhasználó mondott köszönetet papadi felhaszlálónak ezért a témáért:

    antalka (2019-02-02),borbely64 (2019-01-12),Endy4 (2019-01-25),geo (2019-05-18)

  17. #9
    Status
    Offline
    papadi's Avatar
    Feltöltő
    Csatlakozott
    14-04-20
    Hozzászólások
    2.539
    Halott Témáim
    Igen, Törölhető
    Köszönöm
    394
    12.261 Kapott Köszi 2.283 Témáért
    08-2116a



    Édes Anna
    Fekete-fehér magyar filmdráma (1958)
    Főszereplők: Törőcsik Mari, Mezei Mária, Kovács Károly, Fülöp Zsigmond fh.
    Rendezte: Fábri Zoltán
    Magyar filmek gyűjteménye 8.
    Fantasy Film, 2006. október 5.

    Tartalom a borítóról:
    Vizyék a kommün bukása után igyekeznek úgy folytatni életüket, mint a felfordulás előtt. Felvesznek egy új mindenest, a csendes és szorgalmas Annát. A lánynak udvarlója is akad, a tisztességes kéményseprőfiú, de Anna az úr unokaöccsébe, Jancsiba lesz szerelmes. A férfi elcsábítja a lányt, de többet nem törődik vele, csak akkor, amikor kiderül: terhes. Ekkor pénzt ad a műtétre. Vizyék egy pompázatos vacsorán vendégül látják Jancsit és új barátnőjét. Anna mélységes megaláztatásában éjjel leszúrja a Vizy házaspárt.



    Formátum: dvdrip/avi
    Méret: 833 MB
    Felbontás: 720x544
    Mintavételi frekvencia: 48000 Hz
    Bitsebesség: 128 kbps
    Műsoridő: 1:23:54

      Spoiler: Részletes média információ: 


    I:\Video\08 - Édes Anna.avi
    General
    Complete name : I:\Video\08 - Édes Anna.avi
    Format : AVI
    Format/Info : Audio Video Interleave
    File size : 837 MiB
    Duration : 1 h 23 min
    Overall bit rate : 1 395 kb/s
    Writing application : VirtualDubMod 1.5.4.1 (build 2178/release)
    Writing library : VirtualDubMod build 2178/release
    Video #0
    ID : 0
    Format : MPEG-4 Visual
    Format profile : Advanced Simple@L5
    Format settings, BVOP : 1
    Format settings, QPel : No
    Format settings, GMC : No warppoints
    Format settings, Matrix : Custom
    Codec ID : XVID
    Codec ID/Hint : XviD
    Duration : 1 h 23 min
    Bit rate : 1 260 kb/s
    Width : 720 pixels
    Height : 544 pixels
    Display aspect ratio : 4:3
    Frame rate : 25.000 FPS
    Color space : YUV
    Chroma subsampling : 4:2:0
    Bit depth : 8 bits
    Scan type : Progressive
    Compression mode : Lossy
    Bits/(Pixel*Frame) : 0.129
    Stream size : 756 MiB (90%)
    Writing library : XviD 1.2.1 (UTC 2008-12-04)
    Audio #1
    ID : 1
    Format : MPEG Audio
    Format version : Version 1
    Format profile : Layer 3
    Mode : Joint stereo
    Mode extension : MS Stereo
    Codec ID : 55
    Codec ID/Hint : MP3
    Duration : 1 h 23 min
    Bit rate mode : Constant
    Bit rate : 128 kb/s
    Channel(s) : 2 channels
    Sampling rate : 48.0 kHz
    Compression mode : Lossy
    Stream size : 76.8 MiB (9%)
    Alignment : Aligned on interleaves
    Interleave, duration : 80 ms (2.00 video frames)
    Interleave, preload duration : 504 ms
    Writing library : LAME3.98r
    Encoding settings : -m j -V 4 -q 2 -lowpass 17 -b 128


    Code: 

    Link megtekintéséhez LÉPJ BE vagy REGISZTRÁLJ az oldalra

    vagy free
    Code: 

    Link megtekintéséhez LÉPJ BE vagy REGISZTRÁLJ az oldalra




  18. Eddig 3 Felhasználó mondott köszönetet papadi felhaszlálónak ezért a témáért:

    antalka (2019-02-02),borbely64 (2019-01-12),Endy4 (2019-01-25)

  19. #10
    Status
    Offline
    papadi's Avatar
    Feltöltő
    Csatlakozott
    14-04-20
    Hozzászólások
    2.539
    Halott Témáim
    Igen, Törölhető
    Köszönöm
    394
    12.261 Kapott Köszi 2.283 Témáért


    Két félidő a pokolban
    Fekete-fehér magyar háborús filmdráma (1961)
    Főszereplők: Sinkovits Imre, Garas Dezső, Márkus László, Molnár Tibor, Koltai János fh., Benkő Gyula, Suka Sándor, Gera Zoltán, Velenczey István, Horváth József, Komlós András, Szilágyi Gyula, Végvári Tamás fh., Rajz János, Görbe János, Egri István, Solti Bertalan, Misoga László, Apor Noémi, Fenyő Emil, Brachfeld Siegfried, Maklári János, Farkas Antal, Szendrő József, Bángyörgyi Károly, Iványi József
    Rendezte: Fábri Zoltán
    Magyar filmek gyűjteménye 9.
    Fantasy Film, 2006. október 2.

    Tartalom a borítóról:
    Valahol Ukrajnában vagyunk. A testileg-lelkileg meggyengült munkaszolgálatosok egy utolsó esélyt kapnak: mivel Hitler születésnapja van, összemérhetik erejüket egy futballmérkőzés keretében a német katonák válogatottjával. A szervezéssel Ónodi II.-t az egykori futballcsillagot bízzák meg, aki eleinte nem akarja elvállalni, hogy megszervezze a mérkőzést. Pedig ez lehet a foglyok utolsó esélye, és a focisták élelmet kapnak és mentesülnek a bányamunka alól is. A meccs ezúttal a túlélésért folyik, és a győzelem nem marad el. Az önfeledt ünneplés közben a német parancsnok tűzparancsot ad a gépfegyvereseknek…



    Formátum: dvdrip/avi
    Méret: 1,16 GB
    Felbontás: 720x544
    Mintavételi frekvencia: 48000 Hz
    Bitsebesség: 128 kbps
    Műsoridő: 1:59:16

      Spoiler: Részletes média információ: 


    I:\Video\09 - Két félidö a pokolban.avi
    General
    Complete name : I:\Video\09 - Két félidö a pokolban.avi
    Format : AVI
    Format/Info : Audio Video Interleave
    File size : 1.16 GiB
    Duration : 1 h 59 min
    Overall bit rate : 1 397 kb/s
    Writing application : VirtualDubMod 1.5.4.1 (build 2178/release)
    Writing library : VirtualDubMod build 2178/release
    Video #0
    ID : 0
    Format : MPEG-4 Visual
    Format profile : Advanced Simple@L5
    Format settings, BVOP : 1
    Format settings, QPel : No
    Format settings, GMC : No warppoints
    Format settings, Matrix : Custom
    Codec ID : XVID
    Codec ID/Hint : XviD
    Duration : 1 h 59 min
    Bit rate : 1 261 kb/s
    Width : 720 pixels
    Height : 544 pixels
    Display aspect ratio : 4:3
    Frame rate : 25.000 FPS
    Color space : YUV
    Chroma subsampling : 4:2:0
    Bit depth : 8 bits
    Scan type : Progressive
    Compression mode : Lossy
    Bits/(Pixel*Frame) : 0.129
    Stream size : 1.05 GiB (90%)
    Writing library : XviD 1.2.1 (UTC 2008-12-04)
    Audio #1
    ID : 1
    Format : MPEG Audio
    Format version : Version 1
    Format profile : Layer 3
    Mode : Joint stereo
    Mode extension : MS Stereo
    Codec ID : 55
    Codec ID/Hint : MP3
    Duration : 1 h 59 min
    Bit rate mode : Constant
    Bit rate : 128 kb/s
    Channel(s) : 2 channels
    Sampling rate : 48.0 kHz
    Compression mode : Lossy
    Stream size : 109 MiB (9%)
    Alignment : Aligned on interleaves
    Interleave, duration : 80 ms (2.00 video frames)
    Interleave, preload duration : 504 ms
    Writing library : LAME3.98r
    Encoding settings : -m j -V 4 -q 2 -lowpass 17 -b 128


    Code: 

    Link megtekintéséhez LÉPJ BE vagy REGISZTRÁLJ az oldalra

    vagy free
    Code: 

    Link megtekintéséhez LÉPJ BE vagy REGISZTRÁLJ az oldalra




  20. Eddig 3 Felhasználó mondott köszönetet papadi felhaszlálónak ezért a témáért:

    antalka (2019-02-02),borbely64 (2019-01-12),Endy4 (2019-01-25)

 

 
Page 1 of 4 123 ... LastLast

Jogosultságok

  • Nem nyithatsz Új Témát
  • Nem válaszolhatsz a Témában
  • Nem csatolhatsz állományt
  • Nem szerkesztheted a Hozzászólásaid
  •