Page 4 of 4 FirstFirst ... 234
Results 31 to 38 of 38
  1. #1
    Status
    Offline
    papadi's Avatar
    Feltöltő
    Csatlakozott
    14-04-20
    Hozzászólások
    2.822
    Halott Témáim
    Igen, Törölhető
    Köszönöm
    359
    19.673 Kapott Köszi 2.589 Témáért

    Akció klasszikusok



    Akció klasszikusok

    2006-2009 között megjelent sorozat (általam ismert) 32 filmje egy kis ráadással:

    Ütközetben eltűnt
    Ütközetben eltűnt 2
    Ütközetben eltűnt 3
    Delta kommandó
    Delta kommandó 2
    Véres játék
    Cyborg
    Időzsaru
    Kickboxer
    Oroszlánszív
    Dupla dinamit
    Rendőrsztori 1
    Rendőrsztori 2 - A rendőrsztori folytatódik
    Rendőrsztori 3
    Rendőrsztori 4 - Első csapás (nem része a sorozatnak)
    Rendőrsztori 5 - Újabb rendőrsztori (nem része a sorozatnak)
    Leszámolás Hongkongban
    Halálos játszma II
    A halál keze
    A jó fiúk feketében járnak
    A nagyfőnök
    Gördülő kung-fu (+ extrák egy másik kiadásról)
    Halálos játszma
    Vigyázat, (már megint) nyomozunk
    Vigyázat, nyomozunk
    Kínai történet
    Balekok és banditák
    Kemény halál
    A nagy balhé
    A nagy balhé 2
    Kínai történet 2
    Kínai történet 3
    Mesterek
    Bruce Lee: Az ember és a legenda

    Hasonló témák:

  2. Eddig 9 Felhasználó mondott köszönetet papadi felhaszlálónak ezért a témáért:

    flamoo (2019-04-16),fortresscomm (2018-12-04),inverness (2019-07-10),Karesz70 (2018-12-02),Lemmi1 (2018-12-26),marschmrk (2018-12-04),Papi66 (2018-12-22),sztiv70 (2019-10-13),Zolika70 (2019-10-07)

  3. #31
    Status
    Offline
    papadi's Avatar
    Feltöltő
    Csatlakozott
    14-04-20
    Hozzászólások
    2.822
    Halott Témáim
    Igen, Törölhető
    Köszönöm
    359
    19.673 Kapott Köszi 2.589 Témáért


    A nagy balhé 2.
    ('A' gai wak juk jap / Project A 2)
    Hongkongi akcióvígjáték (1987)
    Főszereplők: Jackie Chan, Maggie Cheung, Rosamund Kwan, Carina Lau, David Lam, Bill Tung
    Rendezte: Jackie Chan
    Akció klasszikusok (28)
    Budapest Film, 2009. július 10. BF 55128

    Dragon (Jackie Chan), miután legyőzte az ördögi Lo vezette kalózokat, kiérdemli, hogy a helyi rendőrség feje legyen. Őszintén meglepődik, mikor beosztottjai az orra előtt folytatják korrupciós ügyeiket, ráadásul egy ékszerrablásba is belekeverik, hogy aláássák jó hírét. Miközben azon fáradozik, hogy tisztára mossa nevét, kémekkel, (megint) kalózokkal és forradalmárokkal kell összecsapnia... (a borítóról)



    Formátum: dvdrip/avi
    Méret: 1,24 GB
    Felbontás: 720x304
    Mintavételi frekvencia: 48000 Hz
    Bitsebesség: 106 kbps
    Műsoridő: 1:42:01


      Spoiler: Részletes média információ: 

    I:\Video\A nagy balhé 2.avi
    General
    Complete name : I:\Video\A nagy balhé 2.avi
    Format : AVI
    Format/Info : Audio Video Interleave
    File size : 1.25 GiB
    Duration : 1 h 42 min
    Overall bit rate mode : Variable
    Overall bit rate : 1 749 kb/s
    Writing application : VirtualDubMod 1.5.4.1 (build 2178/release)
    Writing library : VirtualDubMod build 2178/release
    Video #0
    ID : 0
    Format : MPEG-4 Visual
    Format profile : Advanced Simple@L5
    Format settings, BVOP : 1
    Format settings, QPel : No
    Format settings, GMC : No warppoints
    Format settings, Matrix : Custom
    Codec ID : XVID
    Codec ID/Hint : XviD
    Duration : 1 h 42 min
    Bit rate : 1 629 kb/s
    Width : 720 pixels
    Height : 304 pixels
    Display aspect ratio : 2.35:1
    Frame rate : 25.000 FPS
    Color space : YUV
    Chroma subsampling : 4:2:0
    Bit depth : 8 bits
    Scan type : Progressive
    Compression mode : Lossy
    Bits/(Pixel*Frame) : 0.298
    Stream size : 1.16 GiB (93%)
    Writing library : XviD 1.2.1 (UTC 2008-12-04)
    Audio #1
    ID : 1
    Format : MPEG Audio
    Format version : Version 1
    Format profile : Layer 3
    Mode : Joint stereo
    Mode extension : MS Stereo
    Codec ID : 55
    Codec ID/Hint : MP3
    Duration : 1 h 42 min
    Bit rate mode : Variable
    Bit rate : 106 kb/s
    Nominal bit rate : 128 kb/s
    Channel(s) : 2 channels
    Sampling rate : 48.0 kHz
    Compression mode : Lossy
    Stream size : 77.5 MiB (6%)
    Alignment : Aligned on interleaves
    Interleave, duration : 24 ms (0.60 video frame)
    Interleave, preload duration : 600 ms
    Writing library : LAME3.98r
    Encoding settings : -m j -V 4 -q 2 -lowpass 17 --abr 128


    Code: 

    Link megtekintéséhez LÉPJ BE vagy REGISZTRÁLJ az oldalra

    vagy free
    Code: 

    Link megtekintéséhez LÉPJ BE vagy REGISZTRÁLJ az oldalra




  4. Eddig 4 Felhasználó mondott köszönetet papadi felhaszlálónak ezért a témáért:

    Heimdal (2019-05-05),technojani (2018-12-13),today (2019-01-10),zsolt7409 (2018-12-08)

  5. #32
    Status
    Offline
    papadi's Avatar
    Feltöltő
    Csatlakozott
    14-04-20
    Hozzászólások
    2.822
    Halott Témáim
    Igen, Törölhető
    Köszönöm
    359
    19.673 Kapott Köszi 2.589 Témáért


    Kínai történet 2.
    (Wong Fei Hung II: Nam yi dong ji keung / Once Upon a Time in China II)
    Hongkongi akciófilm (1992)
    Főszereplők: Jet Li, David Chiang, Rosamund Kwan, Xin Xin Xiong, Donnie Yen, Siu Chung Mok
    Rendezte: Tsui Hark
    Akció klasszikusok (29)
    Budapest Film, 2009. július 15. BF 55180

    Dr. Wong Fei-Hung (Jet Li) asszisztensével és szeretett nagynénjével Cantonba látogat, hogy egy konferencián a kínai akupunktúra művészetéből adjanak ízelítőt.
    A városban egy ideje harcok dúlnak, a lázadók és az összeomlóban lévő dinasztia hívei csapnak össze - Cantonban forradalmi a hangulat.
    Mivel Wong számára mindig is az igazság volt a legfontosabb, a csatákban a bátor forradalmárok mellé áll, hogy végül egy mindent elsöprő küzdelemben győzedelmeskedjenek.
    (a borítóról)



    Formátum: dvdrip/avi
    Méret: 1,32 GB
    Felbontás: 720x240
    Mintavételi frekvencia: 48000 Hz
    Bitsebesség: 105 kbps
    Műsoridő: 1:48:01

      Spoiler: Részletes média információ: 


    I:\Video\Kinai történet 2.avi
    General
    Complete name : I:\Video\Kinai történet 2.avi
    Format : AVI
    Format/Info : Audio Video Interleave
    File size : 1.32 GiB
    Duration : 1 h 48 min
    Overall bit rate mode : Variable
    Overall bit rate : 1 749 kb/s
    Writing application : VirtualDubMod 1.5.4.1 (build 2178/release)
    Writing library : VirtualDubMod build 2178/release
    Video #0
    ID : 0
    Format : MPEG-4 Visual
    Format profile : Advanced Simple@L5
    Format settings, BVOP : 1
    Format settings, QPel : No
    Format settings, GMC : No warppoints
    Format settings, Matrix : Custom
    Codec ID : XVID
    Codec ID/Hint : XviD
    Duration : 1 h 48 min
    Bit rate : 1 631 kb/s
    Width : 720 pixels
    Height : 240 pixels
    Display aspect ratio : 3.000
    Frame rate : 25.000 FPS
    Color space : YUV
    Chroma subsampling : 4:2:0
    Bit depth : 8 bits
    Scan type : Progressive
    Compression mode : Lossy
    Bits/(Pixel*Frame) : 0.378
    Stream size : 1.23 GiB (93%)
    Writing library : XviD 1.2.1 (UTC 2008-12-04)
    Audio #1
    ID : 1
    Format : MPEG Audio
    Format version : Version 1
    Format profile : Layer 3
    Mode : Joint stereo
    Mode extension : MS Stereo
    Codec ID : 55
    Codec ID/Hint : MP3
    Duration : 1 h 48 min
    Bit rate mode : Variable
    Bit rate : 105 kb/s
    Nominal bit rate : 128 kb/s
    Channel(s) : 2 channels
    Sampling rate : 48.0 kHz
    Compression mode : Lossy
    Stream size : 81.1 MiB (6%)
    Alignment : Aligned on interleaves
    Interleave, duration : 24 ms (0.60 video frame)
    Interleave, preload duration : 495 ms
    Writing library : LAME3.98r
    Encoding settings : -m j -V 4 -q 2 -lowpass 17 --abr 128


    Code: 

    Link megtekintéséhez LÉPJ BE vagy REGISZTRÁLJ az oldalra

    vagy free
    Code: 

    Link megtekintéséhez LÉPJ BE vagy REGISZTRÁLJ az oldalra




  6. Eddig 5 Felhasználó mondott köszönetet papadi felhaszlálónak ezért a témáért:

    cipofuzo (2019-08-20),Merle (2019-04-08),Nomad61 (2019-06-01),Papi66 (2018-12-22),technojani (2018-12-13)

  7. #33
    Status
    Offline
    papadi's Avatar
    Feltöltő
    Csatlakozott
    14-04-20
    Hozzászólások
    2.822
    Halott Témáim
    Igen, Törölhető
    Köszönöm
    359
    19.673 Kapott Köszi 2.589 Témáért


    Kínai történet 3.
    (Wong Fei Hung ji saam: Si wong jaang ba / Once Upon a Time in China III)
    Hongkongi akciófilm (1993)
    Főszereplők: Jet Li, Cunzhuang Ge, Rosamund Kwan, Shun Lau, Siu Chung Mok, John Wakefield, Xin Xin Xiong
    Rendezte: Tsui Hark
    Akció klasszikusok (30)
    Budapest Film, 2009. augusztus 7. BF 55203

    A trilógia utolsó részében Wong Fei Hungnak (Jet Li), a neves harcművésznek immáron Pekingbe vezet az útja. Részt kíván venni a császárné által meghirdetett Oroszlántánc harcművészeti versenyen, emellett bemutatná jegyesét (Rosamund Kwan) pekingi édesapjának. Wong nem számít arra, hogy leendő párjának orosz csábítója akad, így a versenyen résztvevő brutális harcosokon kívül még a szerelméért is meg kell küzdenie.
    Tsui Hark pazar kiállítású filmjével - benne a gyönyörűen koreografált harci jelenetekkel - méltó befejezést készített remek ívű, kivételes látványvilágú trilógiájának.
    (a borítóról)



    Formátum: dvdrip/avi
    Méret: 1,30 GB
    Felbontás: 720x240
    Mintavételi frekvencia: 48000 Hz
    Bitsebesség: 106 kbps
    Műsoridő: 1:47:03
      Spoiler: Részletes média információ: 


    I:\Video\Kinai történet 3.avi
    General
    Complete name : I:\Video\Kinai történet 3.avi
    Format : AVI
    Format/Info : Audio Video Interleave
    File size : 1.31 GiB
    Duration : 1 h 47 min
    Overall bit rate mode : Variable
    Overall bit rate : 1 749 kb/s
    Writing application : VirtualDubMod 1.5.4.1 (build 2178/release)
    Writing library : VirtualDubMod build 2178/release
    Video #0
    ID : 0
    Format : MPEG-4 Visual
    Format profile : Advanced Simple@L5
    Format settings, BVOP : 1
    Format settings, QPel : No
    Format settings, GMC : No warppoints
    Format settings, Matrix : Custom
    Codec ID : XVID
    Codec ID/Hint : XviD
    Duration : 1 h 47 min
    Bit rate : 1 630 kb/s
    Width : 720 pixels
    Height : 240 pixels
    Display aspect ratio : 3.000
    Frame rate : 25.000 FPS
    Color space : YUV
    Chroma subsampling : 4:2:0
    Bit depth : 8 bits
    Scan type : Progressive
    Compression mode : Lossy
    Bits/(Pixel*Frame) : 0.377
    Stream size : 1.22 GiB (93%)
    Writing library : XviD 1.2.1 (UTC 2008-12-04)
    Audio #1
    ID : 1
    Format : MPEG Audio
    Format version : Version 1
    Format profile : Layer 3
    Mode : Joint stereo
    Codec ID : 55
    Codec ID/Hint : MP3
    Duration : 1 h 47 min
    Bit rate mode : Variable
    Bit rate : 106 kb/s
    Nominal bit rate : 128 kb/s
    Channel(s) : 2 channels
    Sampling rate : 48.0 kHz
    Compression mode : Lossy
    Stream size : 81.0 MiB (6%)
    Alignment : Aligned on interleaves
    Interleave, duration : 24 ms (0.60 video frame)
    Interleave, preload duration : 501 ms
    Writing library : LAME3.98r
    Encoding settings : -m j -V 4 -q 2 -lowpass 17 --abr 128


    Code: 

    Link megtekintéséhez LÉPJ BE vagy REGISZTRÁLJ az oldalra

    vagy free
    Code: 

    Link megtekintéséhez LÉPJ BE vagy REGISZTRÁLJ az oldalra




  8. Eddig 4 Felhasználó mondott köszönetet papadi felhaszlálónak ezért a témáért:

    cipofuzo (2019-08-20),Merle (2019-04-08),Nomad61 (2019-06-01),technojani (2018-12-13)

  9. #34
    Status
    Offline
    papadi's Avatar
    Feltöltő
    Csatlakozott
    14-04-20
    Hozzászólások
    2.822
    Halott Témáim
    Igen, Törölhető
    Köszönöm
    359
    19.673 Kapott Köszi 2.589 Témáért


    Mesterek
    (Long xing tian xia / The Master)
    Hongkongi - amerikai akciófilm (1989)
    Főszereplők: Jet Li, Wah Yuen, Crystal Kwok, Jerry Trimble, Anne Rickets, Rueben Gonzáles
    Rendezte: Tsui Hark
    Akció klasszikusok (31)
    Budapest Film, 2009. augusztus 7. BF 55210

    Tak (Wah Yuen), az idős harcművész egy ideje az Egyesült Államokban él, gyógyfüveket árul. Nem tud arról, hogy régi tanítványa, Johnny (Jerry Trimble) minden idős mesterének az életére tört, hogy így bizonyítsa: ő a legnagyobb harcos. Most Tak jön a sorban, ám mivel gondoskodna családjáról, megkéri egy szeretett és nagytudású tanítványát, védje meg őket. Jet (Jet Li) Kína után nagyon nehezen barátkozik meg az amerikai körülményekkel, mégis Johnny nyomába ered... (a borítóról)



    Formátum: dvdrip/avi
    Méret: 1,08 GB
    Felbontás: 720x420
    Mintavételi frekvencia: 48000 Hz
    Bitsebesség: 105 kbps
    Műsoridő: 1:29:01

      Spoiler: Részletes média információ: 


    I:\Video\Mesterek.avi
    General
    Complete name : I:\Video\Mesterek.avi
    Format : AVI
    Format/Info : Audio Video Interleave
    File size : 1.09 GiB
    Duration : 1 h 29 min
    Overall bit rate mode : Variable
    Overall bit rate : 1 748 kb/s
    Writing application : VirtualDubMod 1.5.4.1 (build 2178/release)
    Writing library : VirtualDubMod build 2178/release
    Video #0
    ID : 0
    Format : MPEG-4 Visual
    Format profile : Advanced Simple@L5
    Format settings, BVOP : 1
    Format settings, QPel : No
    Format settings, GMC : No warppoints
    Format settings, Matrix : Custom
    Codec ID : XVID
    Codec ID/Hint : XviD
    Duration : 1 h 29 min
    Bit rate : 1 631 kb/s
    Width : 720 pixels
    Height : 400 pixels
    Display aspect ratio : 16:9
    Frame rate : 25.000 FPS
    Color space : YUV
    Chroma subsampling : 4:2:0
    Bit depth : 8 bits
    Scan type : Progressive
    Compression mode : Lossy
    Bits/(Pixel*Frame) : 0.226
    Stream size : 1.01 GiB (93%)
    Writing library : XviD 1.2.1 (UTC 2008-12-04)
    Audio #1
    ID : 1
    Format : MPEG Audio
    Format version : Version 1
    Format profile : Layer 3
    Mode : Joint stereo
    Mode extension : MS Stereo
    Codec ID : 55
    Codec ID/Hint : MP3
    Duration : 1 h 29 min
    Bit rate mode : Variable
    Bit rate : 105 kb/s
    Nominal bit rate : 128 kb/s
    Channel(s) : 2 channels
    Sampling rate : 48.0 kHz
    Compression mode : Lossy
    Stream size : 66.6 MiB (6%)
    Alignment : Aligned on interleaves
    Interleave, duration : 24 ms (0.60 video frame)
    Interleave, preload duration : 502 ms
    Writing library : LAME3.98r
    Encoding settings : -m j -V 4 -q 2 -lowpass 17 --abr 128


    Code: 

    Link megtekintéséhez LÉPJ BE vagy REGISZTRÁLJ az oldalra

    vagy free
    Code: 

    Link megtekintéséhez LÉPJ BE vagy REGISZTRÁLJ az oldalra




  10. Eddig 6 Felhasználó mondott köszönetet papadi felhaszlálónak ezért a témáért:

    Heimdal (2019-05-05),kati0079 (2019-02-16),Merle (2019-01-04),Nomad61 (2019-06-01),oldboy (2018-12-05),technojani (2018-12-13)

  11. #35
    Status
    Offline
    papadi's Avatar
    Feltöltő
    Csatlakozott
    14-04-20
    Hozzászólások
    2.822
    Halott Témáim
    Igen, Törölhető
    Köszönöm
    359
    19.673 Kapott Köszi 2.589 Témáért


    Bruce Lee: Az ember és a legenda
    Alternatív cím: Bruce Lee, a férfi és a legenda
    (Bruce Lee: The Man and the Legend)
    Hongkongi dokumentumfilm (1973)
    Rendezte: Shih Wu
    Akció klasszikusok (32)
    Budapest Film, 2009. szeptember 8. BF 55098

    Bruce Lee élete tragikusan hamar ért véget. Bár San Franciscóban született, Hongkongban nőtt fel s vált a harcművészeti témájú filmek koronázatlan királyává. Példaképe lett egyebek közt Jackie Cannek, Jet Linek, Steven Seagalnak; Chuck Norris és Steve McQueen tőle tanult kung-fuzni.
    Legendás filmjei
    A nagyfőnok, a Toboló ököl és A Sárkány útja. Utolsó, s egyben legnépszerűbb filmje, mely az első közös produkció volt nyugat és kelet között, A Sárkány közbelép címet kapta.
    E dokumentumfilm rendezője megkapó portrét festett egy végtelenül tehetséges férfi életének jelentősebb pillanataiból.
    (a borítóról)



    Formátum: dvdrip/avi
    Méret: 0,98 GB
    Felbontás: 720x512
    Mintavételi frekvencia: 48000 Hz
    Bitsebesség: 102 kbps
    Műsoridő: 1:20:13

      Spoiler: Részletes média információ: 

    I:\Video\Bruce Lee - Az ember és a legenda.avi
    General
    Complete name : I:\Video\Bruce Lee - Az ember és a legenda.avi
    Format : AVI
    Format/Info : Audio Video Interleave
    File size : 1 003 MiB
    Duration : 1 h 20 min
    Overall bit rate mode : Variable
    Overall bit rate : 1 748 kb/s
    Writing application : VirtualDubMod 1.5.4.1 (build 2178/release)
    Writing library : VirtualDubMod build 2178/release
    Video #0
    ID : 0
    Format : MPEG-4 Visual
    Format profile : Advanced Simple@L5
    Format settings, BVOP : 1
    Format settings, QPel : No
    Format settings, GMC : No warppoints
    Format settings, Matrix : Custom
    Codec ID : XVID
    Codec ID/Hint : XviD
    Duration : 1 h 20 min
    Bit rate : 1 633 kb/s
    Width : 720 pixels
    Height : 304 pixels
    Display aspect ratio : 2.35:1
    Frame rate : 25.000 FPS
    Color space : YUV
    Chroma subsampling : 4:2:0
    Bit depth : 8 bits
    Scan type : Progressive
    Compression mode : Lossy
    Bits/(Pixel*Frame) : 0.298
    Stream size : 937 MiB (93%)
    Writing library : XviD 1.2.1 (UTC 2008-12-04)
    Audio #1
    ID : 1
    Format : MPEG Audio
    Format version : Version 1
    Format profile : Layer 3
    Mode : Joint stereo
    Codec ID : 55
    Codec ID/Hint : MP3
    Duration : 1 h 20 min
    Bit rate mode : Variable
    Bit rate : 102 kb/s
    Nominal bit rate : 128 kb/s
    Channel(s) : 2 channels
    Sampling rate : 48.0 kHz
    Compression mode : Lossy
    Stream size : 58.8 MiB (6%)
    Alignment : Aligned on interleaves
    Interleave, duration : 24 ms (0.60 video frame)
    Interleave, preload duration : 550 ms
    Writing library : LAME3.98r
    Encoding settings : -m j -V 4 -q 2 -lowpass 17 --abr 128


    Code: 

    Link megtekintéséhez LÉPJ BE vagy REGISZTRÁLJ az oldalra

    vagy free
    Code: 

    Link megtekintéséhez LÉPJ BE vagy REGISZTRÁLJ az oldalra




  12. Eddig 6 Felhasználó mondott köszönetet papadi felhaszlálónak ezért a témáért:

    alexaxel (2019-01-04),Antibal (2019-10-07),oldboy (2018-12-05),Papi66 (2018-12-22),technojani (2018-12-13),today (2019-01-10)

  13. #36
    Status
    Offline
    oldboy's Avatar
    Regisztrált tag
    Csatlakozott
    14-01-13
    Hozzászólások
    39
    Halott Témáim
    Igen, Törölhető
    Köszönöm
    1.671
    5 Kapott Köszi 5 Témáért
    Köszönöm szépen eszt a Különleges gyűjteményt!


  14. #37
    Status
    Offline
    kati0079's Avatar
    Regisztrált felhasználók
    Csatlakozott
    13-10-06
    Hozzászólások
    1
    Halott Témáim
    Igen, Törölhető
    Köszönöm
    1.240
    0 Kapott Köszi 0 Témáért
    Köszönöm szépen ezt a szép gyűjteményt!


  15. #38
    Status
    Offline
    Antibal's Avatar
    Regisztrált felhasználók
    Csatlakozott
    14-11-02
    Hozzászólások
    1
    Halott Témáim
    Igen, Törölhető
    Köszönöm
    185
    0 Kapott Köszi 0 Témáért
    Köszönet a gyűjteményért!


 

 

Jogosultságok

  • Nem nyithatsz Új Témát
  • Nem válaszolhatsz a Témában
  • Nem csatolhatsz állományt
  • Nem szerkesztheted a Hozzászólásaid
  •