Results 1 to 2 of 2
  1. #1
    Status
    Offline
    papadi's Avatar
    Feltöltő
    Csatlakozott
    14-04-20
    Hozzászólások
    2.662
    Halott Témáim
    Nem, Újraélesztem
    Köszönöm
    368
    11.717 Kapott Köszi 2.367 Témáért

    Iron Maiden: Raising Hell



    Iron Maiden: Raising Hell
    Pinewood Studios in London, England, on 28 August 1993
    Director: Declan Lowney
    BMG Special Products, 72333-80091-9 (2000) US
    Platinum Performances
    Style: Heavy Metal

    Tracklist

    01 - Be Quick Or Be Dead (Bruce Dickinson - Janick Gers)
    02 - The Trooper (Steve Harris)
    03 - The Evil That Men Do (Adrian Smith - Bruce Dickinson - Steve Harris)
    04 - The Clairvoyant (Steve Harris)
    05 - Hallowed Be Thy Name (Steve Harris)
    06 - Wrathchild (Steve Harris)
    07 - Transylvania (Steve Harris)
    08 - From Here To Eternity (Steve Harris)
    09 - Fear Of The Dark (Steve Harris)
    10 - The Number Of The Beast (Steve Harris)
    11 - Bring Your Daughter … To The Slaughter (Bruce Dickinson)
    12 - Two Minutes To Midnight (Adrian Smith - Bruce Dickinson)
    13 - Afraid To Shoot Strangers (Steve Harris)
    14 - Heaven Can Wait (Steve Harris)
    15 - Sanctuary (Steve Harris - Dave Murray - Paul Di'Anno)
    16 - Run To The Hills (Steve Harris)
    17 - Iron Maiden (Steve Harris)

    IRON MAIDEN:
    Bruce Dickinson - vocals
    Dave Murray - guitar
    Janick Gers - guitar
    Steve Harris - bass
    Nicko McBrain - drums

    Simon Drake - horror illusionist



    Formátum: dvdrip/avi
    Méret: 1,93 GB
    Felbontás: 720x544
    Mintavételi frekvencia: 48000 Hz
    Bitsebesség: 192 kbps
    Műsoridő: 1:53:15

      Spoiler: Részletes média információ: 
    I:\Video\Iron Maiden - Raising Hell.avi
    General
    Complete name : I:\Video\Iron Maiden - Raising Hell.avi
    Format : AVI
    Format/Info : Audio Video Interleave
    File size : 1.93 GiB
    Duration : 1 h 53 min
    Overall bit rate : 2 443 kb/s
    Writing application : VirtualDubMod 1.5.4.1 (build 2178/release)
    Writing library : VirtualDubMod build 2178/release
    Video #0
    ID : 0
    Format : MPEG-4 Visual
    Format profile : Advanced Simple@L5
    Format settings, BVOP : 1
    Format settings, QPel : No
    Format settings, GMC : No warppoints
    Format settings, Matrix : Custom
    Codec ID : XVID
    Codec ID/Hint : XviD
    Duration : 1 h 53 min
    Bit rate : 2 047 kb/s
    Width : 720 pixels
    Height : 544 pixels
    Display aspect ratio : 4:3
    Frame rate : 29.970 (29970/1000) FPS
    Color space : YUV
    Chroma subsampling : 4:2:0
    Bit depth : 8 bits
    Scan type : Progressive
    Compression mode : Lossy
    Bits/(Pixel*Frame) : 0.174
    Stream size : 1.62 GiB (84%)
    Writing library : XviD 1.2.1 (UTC 2008-12-04)
    Audio #1
    ID : 1
    Format : MPEG Audio
    Format version : Version 1
    Format profile : Layer 3
    Mode : Joint stereo
    Codec ID : 55
    Codec ID/Hint : MP3
    Duration : 1 h 53 min
    Bit rate mode : Constant
    Bit rate : 192 kb/s
    Channel(s) : 2 channels
    Sampling rate : 48.0 kHz
    Compression mode : Lossy
    Stream size : 156 MiB (8%)
    Alignment : Aligned on interleaves
    Interleave, duration : 67 ms (2.00 video frames)
    Interleave, preload duration : 504 ms
    Writing library : LAME3.98r
    Encoding settings : -m j -V 4 -q 2 -lowpass 18.6 -b 192
    Audio #2
    ID : 2
    Format : MPEG Audio
    Format version : Version 1
    Format profile : Layer 3
    Mode : Joint stereo
    Mode extension : MS Stereo
    Codec ID : 55
    Codec ID/Hint : MP3
    Duration : 1 h 53 min
    Bit rate mode : Constant
    Bit rate : 192 kb/s
    Channel(s) : 2 channels
    Sampling rate : 48.0 kHz
    Compression mode : Lossy
    Stream size : 156 MiB (8%)
    Alignment : Aligned on interleaves
    Interleave, duration : 67 ms (2.00 video frames)
    Interleave, preload duration : 504 ms
    Writing library : LAME3.98r
    Encoding settings : -m j -V 4 -q 2 -lowpass 18.6 -b 192


    **Rejtett tartalom: Klikkelj a Köszönöm gombra, ha szeretnéd látni**


    Hasonló témák:

  2. Eddig 18 Felhasználó mondott köszönetet papadi felhaszlálónak ezért a témáért:

    attack3 (2019-02-18),BoCs (2018-11-24),botond07 (2018-11-18),foldizolt (2019-01-05),gabileon (2019-01-20),hjózsef (2018-11-20),jrezsi (2018-12-22),kantal (2018-11-16),norbertooo (2018-11-23),old_fiu (2018-11-27),pistvan69 (2018-11-17),qqq.www (2018-11-16),sacs (2018-11-22),schmoll (2019-01-09),sekiwake (2018-11-18),sgn (2018-12-09),shivers77 (2019-01-14),sipi58 (2018-11-29)

  3. #2
    Status
    Offline
    attack3's Avatar
    Regisztrált tag
    Csatlakozott
    14-07-13
    Hozzászólások
    2
    Halott Témáim
    Igen, Törölhető
    Köszönöm
    102
    0 Kapott Köszi 0 Témáért
    Előre meg kell köszönni a halott linket...


 

 

Jogosultságok

  • Nem nyithatsz Új Témát
  • Nem válaszolhatsz a Témában
  • Nem csatolhatsz állományt
  • Nem szerkesztheted a Hozzászólásaid
  •