I Love You
(I Love You)
Francia - olasz film (1986)
Főszereplők: Christopher Lambert, Eddy Mitchell, Flora Barillaro, Agnés Soral
Rendezte: Marco Ferreri
Filmtörténeti Klasszikusok
Fantasy Film, 2007. március 29.
Hang: magyar, francia
Felirat: magyar

Marco Ferreri húsznál több egész estés nagyjátékfilmben meséli és mutatja rettenetes vízióját ügyes-bajos dolgainkról, nőről, férfiról, a nyugati társadalomról, lehetetlen kapcsolatokról, a felsőbbrendű európai tudat groteszk voltáról. Legismertebb filmjei: A nagy zabálás (1973). Hárem (1967). Dillinger halott (1968), Az utolsó asszony (1976), I Love You (1986), A hús (19991).
Az
I Love You fonák, kommunikációhiányos, kapcsolatteremtésre alkalmatlan, proto-tamagochi realitásában Christopher Lambert, a Metró és a Hegylakó cudarra maszkírozott főszereplője, átlagos fiatalemberként jelenik meg előttünk. Teszi a dolgát, járja a klubokat, puha rongyokkal tisztogatja fullkróm motorbiciklijét, és halálosan beleszeret egy füttyre reagáló mikrochipnyi állításba - "Szeretlek" vernyegi kulcstartója az adott jelre, amit először ez a normális, gondtalan fiú jópofának talál, később beindul tőle, majd hiányozni kezd neki és már csak ettől indul be. Füttyent, reszketve verekszik magával, ejakulál, majd perverz és szerelmetes pillantással simogatja a zsebzsötem-kelléket utójáték gyanánt.



Formátum: dvdrip/avi
Méret: 969 MB
Felbontás: 720x448
Mintavételi frekvencia: 48000 Hz
Bitsebesség: 128 kbps
Műsoridő: 1:36:39

  Spoiler: Részletes média információ: 
I:\Video\I Love You.avi
General
Complete name : I:\Video\I Love You.avi
Format : AVI
Format/Info : Audio Video Interleave
File size : 968 MiB
Duration : 1 h 36 min
Overall bit rate : 1 400 kb/s
Writing application : VirtualDubMod 1.5.4.1 (build 2178/release)
Writing library : VirtualDubMod build 2178/release
Video #0
ID : 0
Format : MPEG-4 Visual
Format profile : Advanced Simple@L5
Format settings, BVOP : 1
Format settings, QPel : No
Format settings, GMC : No warppoints
Format settings, Matrix : Custom
Codec ID : XVID
Codec ID/Hint : XviD
Duration : 1 h 36 min
Bit rate : 1 134 kb/s
Width : 720 pixels
Height : 448 pixels
Display aspect ratio : 16:10
Frame rate : 25.000 FPS
Color space : YUV
Chroma subsampling : 4:2:0
Bit depth : 8 bits
Scan type : Progressive
Compression mode : Lossy
Bits/(Pixel*Frame) : 0.141
Stream size : 784 MiB (81%)
Writing library : XviD 1.2.1 (UTC 2008-12-04)
Audio #1
ID : 1
Format : MPEG Audio
Format version : Version 1
Format profile : Layer 3
Mode : Joint stereo
Mode extension : MS Stereo
Codec ID : 55
Codec ID/Hint : MP3
Duration : 1 h 36 min
Bit rate mode : Constant
Bit rate : 128 kb/s
Channel(s) : 2 channels
Sampling rate : 48.0 kHz
Compression mode : Lossy
Stream size : 88.5 MiB (9%)
Alignment : Aligned on interleaves
Interleave, duration : 80 ms (2.00 video frames)
Interleave, preload duration : 504 ms
Writing library : LAME3.98r
Encoding settings : -m j -V 4 -q 2 -lowpass 17 -b 128
Audio #2
ID : 2
Format : MPEG Audio
Format version : Version 1
Format profile : Layer 3
Mode : Joint stereo
Mode extension : MS Stereo
Codec ID : 55
Codec ID/Hint : MP3
Duration : 1 h 36 min
Bit rate mode : Constant
Bit rate : 128 kb/s
Channel(s) : 2 channels
Sampling rate : 48.0 kHz
Compression mode : Lossy
Stream size : 88.5 MiB (9%)
Alignment : Aligned on interleaves
Interleave, duration : 80 ms (2.00 video frames)
Interleave, preload duration : 504 ms
Writing library : LAME3.98r
Encoding settings : -m j -V 4 -q 2 -lowpass 17 -b 128


Code: 

Link megtekintéséhez LÉPJ BE vagy REGISZTRÁLJ az oldalra

vagy free
Code: 

Link megtekintéséhez LÉPJ BE vagy REGISZTRÁLJ az oldalra



Hasonló témák: