Results 1 to 1 of 1

Téma: Mamma Mia 1-2

  1. #1
    Status
    Offline
    cobretti's Avatar
    Linkellenőr
    Csatlakozott
    13-09-30
    Hozzászólások
    6.199
    Halott Témáim
    Igen, Törölhető
    Köszönöm
    170
    196.344 Kapott Köszi 6.067 Témáért

    Mamma Mia 1-2



    Történet:
    Donna (Meryl Streep) sikeres és független nő, szállodát vezet egy kis görög szigeten, és egyedül neveli lányát, Sophie-t (Amanda Seyfried). Elérkezett az ideje, hogy az ifjú Sophie férjhez menjen. Az esküvőre hivatalosak Donna régi barátnői, Rosie (Julie Walters) és Tanya (Christine Baranski), így régi zenekaruk, a Donna és a Dinamók újra összeállhat. Az esküvői készülődés közben Sophie-t leginkább az apja kiléte foglalkoztatja. Úgy dönt, hogy meghív három férfit Donna múltjából, hátha kiderül, ki a vér szerinti apja. Az esküvő napja eseményekkel teli, új szerelmek bimbóznak és régiek elevenednek fel...


    Szereplők:
    Meryl Streep, Colin Firth, Pierce Brosnan, Amanda Seyfried, Julie Walters, Stellan Skarsgĺrd, Christine Baranski, Dominic Cooper, Philip Michael Thomas, Björn Ulvaeus


    Format : Matroska
    Format version : Version 2
    File size : 1.40 GiB
    Duration : 1h 48mn
    Overall bit rate : 1 849 Kbps
    Encoded date : UTC 2013-03-30 12:32:45
    Writing application : mkvmerge v3.4.0 ('Rapunzel') built on May 15 2010 09:38:20
    Writing library : libebml v0.8.0 + libmatroska v0.9.0

    Video
    ID : 1
    Format : AVC
    Format/Info : Advanced Video Codec
    Format profile : High@L4.1
    Format settings, CABAC : Yes
    Format settings, ReFrames : 4 frames
    Codec ID : V_MPEG4/ISO/AVC
    Duration : 1h 48mn
    Bit rate : 1 463 Kbps
    Width : 720 pixels
    Height : 304 pixels
    Display aspect ratio : 2.35:1
    Frame rate mode : Constant
    Frame rate : 23.976 (24000/1001) fps
    Color space : YUV
    Chroma subsampling : 4:2:0
    Bit depth : 8 bits
    Scan type : Progressive
    Bits/(Pixel*Frame) : 0.279
    Stream size : 1.08 GiB (77%)
    Writing library : x264 core 130 r2273 b3065e6
    Encoding settings : cabac=1 / ref=3 / deblock=1:-1:-1 / analyse=0x3:0x113 / me=hex / subme=7 / psy=1 / psy_rd=1.00:0.15 / mixed_ref=1 / me_range=16 / chroma_me=1 / trellis=1 / 8x8dct=1 / cqm=0 / deadzone=21,11 / fast_pskip=1 / chroma_qp_offset=-3 / threads=4 / lookahead_threads=1 / sliced_threads=0 / nr=0 / decimate=1 / interlaced=0 / bluray_compat=0 / constrained_intra=0 / bframes=3 / b_pyramid=2 / b_adapt=1 / b_bias=0 / direct=1 / weightb=1 / open_gop=0 / weightp=2 / keyint=240 / keyint_min=23 / scenecut=40 / intra_refresh=0 / rc_lookahead=40 / rc=2pass / mbtree=1 / bitrate=1463 / ratetol=1.0 / qcomp=0.60 / qpmin=0 / qpmax=69 / qpstep=4 / cplxblur=20.0 / qblur=0.5 / ip_ratio=1.40 / aq=1:1.00
    Default : No
    Forced : No

    Audio
    ID : 2
    Format : AC-3
    Format/Info : Audio Coding 3
    Mode extension : CM (complete main)
    Format settings, Endianness : Big
    Codec ID : A_AC3
    Duration : 1h 48mn
    Bit rate mode : Constant
    Bit rate : 384 Kbps
    Channel(s) : 6 channels
    Channel positions : Front: L C R, Side: L R, LFE
    Sampling rate : 48.0 KHz
    Frame rate : 31.250 fps (1536 spf)
    Compression mode : Lossy
    Stream size : 298 MiB (21%)
    Language : Hungarian
    Default : Yes
    Forced : No


    **Rejtett tartalom: Klikkelj a Köszönöm gombra, ha szeretnéd látni**


    ---------------------------------------------------------------------------------------------------------------------------------------------------------------------------------------------------------------------



    Történet:
    Tíz évvel azután, hogy a Mamma Mia! több mint 600 millió dollár bevételt hozott világszerte, visszatérünk a varázslatos görög szigetre, Kalokairire ebben az új musicalben, mely szintén az ABBA dalaira épül. A film ide-oda ingázik az időben, és megmutatja, hogy a múltbéli kapcsolatok miképp hatnak a jelenre. Így az eredeti szereplőkhöz csatlakoznak fiatal énjeik, köztük a fiatal Donnát alakító Lily James...


    Szereplők:
    Meryl Streep, Colin Firth, Pierce Brosnan, Amanda Seyfried, Andy García, Julie Walters, Stellan Skarsgĺrd, Cher, Christine Baranski, Dominic Cooper


    Format : Matroska
    Format version : Version 4 / Version 2
    File size : 1.59 GiB
    Duration : 1h 53mn
    Overall bit rate : 2 006 Kbps
    Encoded date : UTC 2018-10-24 18:52:58
    Writing application : mkvmerge v6.1.0 ('Old Devil') built on Mar 4 2013 09:10:42
    Writing library : libebml v1.3.0 + libmatroska v1.4.0

    Video
    ID : 1
    Format : AVC
    Format/Info : Advanced Video Codec
    Format profile : High@L4.1
    Format settings, CABAC : Yes
    Format settings, ReFrames : 16 frames
    Codec ID : V_MPEG4/ISO/AVC
    Duration : 1h 53mn
    Bit rate : 1 326 Kbps
    Width : 720 pixels
    Height : 300 pixels
    Display aspect ratio : 2.40:1
    Frame rate mode : Constant
    Frame rate : 23.976 (24000/1001) fps
    Color space : YUV
    Chroma subsampling : 4:2:0
    Bit depth : 8 bits
    Scan type : Progressive
    Bits/(Pixel*Frame) : 0.256
    Stream size : 1.05 GiB (66%)
    Writing library : x264 core 142 r2431+42 c69a006 tMod [8-bit@all X86_64]
    Encoding settings : cabac=1 / ref=16 / deblock=1:-3:-3 / analyse=0x3:0x133 / me=umh / subme=10 / psy=1 / fade_compensate=0.00 / psy_rd=1.05:0.00 / mixed_ref=1 / me_range=32 / chroma_me=1 / trellis=2 / 8x8dct=1 / cqm=0 / deadzone=21,11 / fast_pskip=0 / chroma_qp_offset=-2 / threads=12 / lookahead_threads=2 / sliced_threads=0 / nr=0 / decimate=0 / interlaced=0 / bluray_compat=0 / constrained_intra=0 / fgo=0 / bframes=7 / b_pyramid=2 / b_adapt=2 / b_bias=0 / direct=3 / weightb=1 / open_gop=0 / weightp=2 / keyint=250 / keyint_min=23 / scenecut=40 / intra_refresh=0 / rc=crf / mbtree=0 / crf=18.5000 / qcomp=0.65 / qpmin=0:0:0 / qpmax=69:69:69 / qpstep=4 / ip_ratio=1.30 / pb_ratio=1.20 / aq=3:0.80 / aq-sensitivity=10.00 / aq-factor=1.00:1.00:1.00 / aq2=0 / aq3=0
    Language : English
    Default : Yes
    Forced : No
    Color range : Limited
    Matrix coefficients : BT.709

    Audio
    ID : 2
    Format : AC-3
    Format/Info : Audio Coding 3
    Mode extension : CM (complete main)
    Format settings, Endianness : Big
    Codec ID : A_AC3
    Duration : 1h 53mn
    Bit rate mode : Constant
    Bit rate : 640 Kbps
    Channel(s) : 6 channels
    Channel positions : Front: L C R, Side: L R, LFE
    Sampling rate : 48.0 KHz
    Frame rate : 31.250 fps (1536 spf)
    Compression mode : Lossy
    Stream size : 520 MiB (32%)
    Language : Hungarian
    Default : Yes
    Forced : No

    Text #1
    ID : 3
    Format : UTF-8
    Codec ID : S_TEXT/UTF8
    Codec ID/Info : UTF-8 Plain Text
    Title : Forced
    Language : Hungarian
    Default : Yes
    Forced : Yes

    Text #2
    ID : 4
    Format : UTF-8
    Codec ID : S_TEXT/UTF8
    Codec ID/Info : UTF-8 Plain Text
    Language : Hungarian
    Default : No
    Forced : No


    **Rejtett tartalom: Klikkelj a Köszönöm gombra, ha szeretnéd látni**



    Hasonló témák:

  2. Eddig 11 Felhasználó mondott köszönetet cobretti felhaszlálónak ezért a témáért:

    Ati1970 (2018-11-11),chronologie (2018-11-10),darth.etele (2018-11-12),gedes (2018-11-06),glory74 (2018-11-10),kis mukk (2018-11-06),Mazsola.bp (2018-11-07),Nomad61 (2018-11-10),rebesz (2018-11-06),Taylorius (2018-11-09),zoli01 (2018-11-11)

 

 

Jogosultságok

  • Nem nyithatsz Új Témát
  • Nem válaszolhatsz a Témában
  • Nem csatolhatsz állományt
  • Nem szerkesztheted a Hozzászólásaid
  •