Page 2 of 2 FirstFirst 12
Results 11 to 14 of 14

Téma: Asterix

  1. #1
    Status
    Offline
    papadi's Avatar
    Feltöltő
    Csatlakozott
    14-04-20
    Hozzászólások
    1.800
    Halott Témáim
    Nem, Újraélesztem
    Köszönöm
    377
    5.956 Kapott Köszi 1.482 Témáért

    Asterix



    Asterix a gall
    (Astérix le Gaulois)
    Francia - belga rajzfilm (1967)
    Rendezte: Ray Goossens, René Goscinny, Albert Uderzo
    Hang: magyar, német, francia
    Felirat: nincs

    A római légiók egész Galliát leigázták. Azaz: csaknem az egészet. Egy kicsinyke falu bátran dacol a hódítókkal. A druida, Panoramix varázsfőzetének hála, lakói emberfeletti erővel verik vissza a környező római garnizonok támadásait. A csetepatékban két harcos jár az élen: a fortélyos eszű Asterix, és a főzet nélkül is bivalyerejű Obelix. Az újra elagyabulált rómaiak - belátván, hogy erővel semmire sem jutnak - cselhez folyamodnak, hogy elcsaklizzák a varázsreceptet. Előbb kémet küldenek a faluba, majd foglyul ejtik a druidát. Csakhogy a gallokat sem ejtették a fejük lágyára, s az agyafúrt Asterix tüstént ellencsellel rukkol elő... (a borítóról)



    Formátum: dvdrip/avi
    Méret: 810 MB
    Felbontás: 720x544
    Mintavételi frekvencia: 48000 Hz
    Bitsebesség: 102-107 kbps
    Műsoridő: 1:05:02

      Spoiler: Részletes média információ: 
    K:\Asterix (1967) Asterix, a gall.avi
    General
    Complete name : K:\Asterix (1967) Asterix, a gall.avi
    Format : AVI
    Format/Info : Audio Video Interleave
    File size : 808 MiB
    Duration : 1 h 5 min
    Overall bit rate mode : Variable
    Overall bit rate : 1 738 kb/s
    Writing application : VirtualDubMod 1.5.4.1 (build 2178/release)
    Writing library : VirtualDubMod build 2178/release
    Video #0
    ID : 0
    Format : MPEG-4 Visual
    Format profile : Advanced Simple@L5
    Format settings, BVOP : 1
    Format settings, QPel : No
    Format settings, GMC : No warppoints
    Format settings, Matrix : Custom
    Codec ID : XVID
    Codec ID/Hint : XviD
    Duration : 1 h 5 min
    Bit rate : 1 395 kb/s
    Width : 720 pixels
    Height : 544 pixels
    Display aspect ratio : 4:3
    Frame rate : 25.000 FPS
    Color space : YUV
    Chroma subsampling : 4:2:0
    Bit depth : 8 bits
    Scan type : Progressive
    Compression mode : Lossy
    Bits/(Pixel*Frame) : 0.142
    Stream size : 649 MiB (80%)
    Writing library : XviD 1.2.1 (UTC 2008-12-04)
    Audio #1
    ID : 1
    Format : MPEG Audio
    Format version : Version 1
    Format profile : Layer 3
    Mode : Joint stereo
    Mode extension : MS Stereo
    Codec ID : 55
    Codec ID/Hint : MP3
    Duration : 1 h 5 min
    Bit rate mode : Variable
    Bit rate : 107 kb/s
    Nominal bit rate : 128 kb/s
    Channel(s) : 2 channels
    Sampling rate : 48.0 kHz
    Compression mode : Lossy
    Stream size : 50.0 MiB (6%)
    Alignment : Aligned on interleaves
    Interleave, duration : 24 ms (0.60 video frame)
    Interleave, preload duration : 496 ms
    Writing library : LAME3.98r
    Encoding settings : -m j -V 4 -q 2 -lowpass 17 --abr 128
    Audio #2
    ID : 2
    Format : MPEG Audio
    Format version : Version 1
    Format profile : Layer 3
    Mode : Joint stereo
    Mode extension : MS Stereo
    Codec ID : 55
    Codec ID/Hint : MP3
    Duration : 1 h 5 min
    Bit rate mode : Variable
    Bit rate : 102 kb/s
    Nominal bit rate : 128 kb/s
    Channel(s) : 2 channels
    Sampling rate : 48.0 kHz
    Compression mode : Lossy
    Stream size : 47.4 MiB (6%)
    Alignment : Aligned on interleaves
    Interleave, duration : 24 ms (0.60 video frame)
    Interleave, preload duration : 180 ms
    Writing library : LAME3.98r
    Encoding settings : -m j -V 4 -q 2 -lowpass 17 --abr 128
    Audio #3
    ID : 3
    Format : MPEG Audio
    Format version : Version 1
    Format profile : Layer 3
    Mode : Joint stereo
    Mode extension : MS Stereo
    Codec ID : 55
    Codec ID/Hint : MP3
    Duration : 1 h 5 min
    Bit rate mode : Variable
    Bit rate : 105 kb/s
    Nominal bit rate : 128 kb/s
    Channel(s) : 2 channels
    Sampling rate : 48.0 kHz
    Compression mode : Lossy
    Stream size : 48.6 MiB (6%)
    Alignment : Aligned on interleaves
    Interleave, duration : 24 ms (0.60 video frame)
    Interleave, preload duration : 426 ms
    Writing library : LAME3.98r
    Encoding settings : -m j -V 4 -q 2 -lowpass 17 --abr 128


    Code: 

    Link megtekintéséhez LÉPJ BE vagy REGISZTRÁLJ az oldalra

    vagy free
    Code: 

    Link megtekintéséhez LÉPJ BE vagy REGISZTRÁLJ az oldalra



    Hasonló témák:

  2. Eddig 5 Felhasználó mondott köszönetet papadi felhaszlálónak ezért a témáért:

    baberfa (2018-10-19),Comondor (2018-10-10),Milli (2018-10-10),peter magyar (2018-10-17),szjani30 (2018-10-23)

  3. #11
    Status
    Offline
    papadi's Avatar
    Feltöltő
    Csatlakozott
    14-04-20
    Hozzászólások
    1.800
    Halott Témáim
    Nem, Újraélesztem
    Köszönöm
    377
    5.956 Kapott Köszi 1.482 Témáért


    Asterix az Olimpián
    (Asterix at the Olimpics)
    Francia – olasz családi film (2008)
    Szereplők: Gérard Depardieu, Clovis Cornillac, Benoît Poelvoorde, Alain Delon, Vanessa Hessler, Jean-Pierre Cassel, Franck Dubosc, Michael Schumacher, Adriana Karembeu, Zinédine Zidane, Tony Parker , José Garcia, Stéphane Rousseau
    Rendezte: Frédéric Forestier, Thomas Langmann
    Hang: magyar, francia
    Felirat: magyar

    Ókori olimpián mérkőznek meg a gallok kicsiny falujának képviselői és az antik világ atlétái - a győztesnek járó babérkoszorúért a harc Brutus, Cézár fiacskája és Habarodix, az ifjú gall között válik élessé, mivel ugyanannak a görög hercegkisasszonynak a kezét akarják a bajnoki címmel elnyerni.
    Kedvelt színészekkel és népszerű sportolókkal találkozhatunk az eddig készült legnagyobb költségvetésű európai filmben.
    (a borítóról)



    Formátum: dvdrip/avi
    Méret: 1,37 GB
    Felbontás: 720x416
    Mintavételi frekvencia: 48000 Hz
    Bitsebesség: 115 kbps
    Műsoridő: 1:52:30

      Spoiler: Részletes média információ: 
    K:\Asterix (2008) Asterix az Olimpián.avi
    General
    Complete name : K:\Asterix (2008) Asterix az Olimpián.avi
    Format : AVI
    Format/Info : Audio Video Interleave
    File size : 1.37 GiB
    Duration : 1 h 52 min
    Overall bit rate mode : Variable
    Overall bit rate : 1 747 kb/s
    Writing application : VirtualDubMod 1.5.4.1 (build 2178/release)
    Writing library : VirtualDubMod build 2178/release
    Video #0
    ID : 0
    Format : MPEG-4 Visual
    Format profile : Advanced Simple@L5
    Format settings, BVOP : 1
    Format settings, QPel : No
    Format settings, GMC : No warppoints
    Format settings, Matrix : Custom
    Codec ID : XVID
    Codec ID/Hint : XviD
    Duration : 1 h 52 min
    Bit rate : 1 496 kb/s
    Width : 720 pixels
    Height : 416 pixels
    Display aspect ratio : 1.731
    Frame rate : 25.000 FPS
    Color space : YUV
    Chroma subsampling : 4:2:0
    Bit depth : 8 bits
    Scan type : Progressive
    Compression mode : Lossy
    Bits/(Pixel*Frame) : 0.200
    Stream size : 1.18 GiB (86%)
    Writing library : XviD 1.2.1 (UTC 2008-12-04)
    Audio #1
    ID : 1
    Format : MPEG Audio
    Format version : Version 1
    Format profile : Layer 3
    Mode : Joint stereo
    Mode extension : MS Stereo
    Codec ID : 55
    Codec ID/Hint : MP3
    Duration : 1 h 52 min
    Bit rate mode : Variable
    Bit rate : 115 kb/s
    Nominal bit rate : 128 kb/s
    Channel(s) : 2 channels
    Sampling rate : 48.0 kHz
    Compression mode : Lossy
    Stream size : 92.9 MiB (7%)
    Alignment : Aligned on interleaves
    Interleave, duration : 24 ms (0.60 video frame)
    Interleave, preload duration : 159 ms
    Writing library : LAME3.98r
    Encoding settings : -m j -V 4 -q 2 -lowpass 17 --abr 128
    Audio #2
    ID : 2
    Format : MPEG Audio
    Format version : Version 1
    Format profile : Layer 3
    Mode : Joint stereo
    Mode extension : MS Stereo
    Codec ID : 55
    Codec ID/Hint : MP3
    Duration : 1 h 52 min
    Bit rate mode : Variable
    Bit rate : 115 kb/s
    Nominal bit rate : 128 kb/s
    Channel(s) : 2 channels
    Sampling rate : 48.0 kHz
    Compression mode : Lossy
    Stream size : 92.4 MiB (7%)
    Alignment : Aligned on interleaves
    Interleave, duration : 24 ms (0.60 video frame)
    Interleave, preload duration : 160 ms
    Writing library : LAME3.98r
    Encoding settings : -m j -V 4 -q 2 -lowpass 17 --abr 128


    Code: 

    Link megtekintéséhez LÉPJ BE vagy REGISZTRÁLJ az oldalra

    vagy free
    Code: 

    Link megtekintéséhez LÉPJ BE vagy REGISZTRÁLJ az oldalra




  4. A következő felhasználók köszönték meg papadi hozzászólását

    Comondor (2018-10-10)

  5. #12
    Status
    Offline
    papadi's Avatar
    Feltöltő
    Csatlakozott
    14-04-20
    Hozzászólások
    1.800
    Halott Témáim
    Nem, Újraélesztem
    Köszönöm
    377
    5.956 Kapott Köszi 1.482 Témáért


    Asterix az Olimpián (extrák)
    Hang: francia
    Felirat: magyar

    Így készült a film (1:30:39)
    A gallok bemutatása (18:36)
    A rómaiak bemutatása (18:47)
    A sportolók bemutatása (8:06)
    A jelmezek (1:53)
    Bakik (4:57)
    Prtemierek Európában (6:42)
    Ave TV: A legjobb epizódok (36:51)



    Formátum: dvdrip/avi
    Méret: 1,82 GB
    Felbontás: 720x544
    Mintavételi frekvencia: 48000 Hz
    Bitsebesség: 110 kbps
    Műsoridő: 3:06:32

      Spoiler: Részletes média információ: 
    K:\Asterix (2008) Asterix az Olimpián - Igy készült a film.avi
    General
    Complete name : K:\Asterix (2008) Asterix az Olimpián - Igy készült a film.avi
    Format : AVI
    Format/Info : Audio Video Interleave
    File size : 906 MiB
    Duration : 1 h 30 min
    Overall bit rate mode : Variable
    Overall bit rate : 1 397 kb/s
    Writing application : VirtualDubMod 1.5.4.1 (build 2178/release)
    Writing library : VirtualDubMod build 2178/release
    Video #0
    ID : 0
    Format : MPEG-4 Visual
    Format profile : Advanced Simple@L5
    Format settings, BVOP : 1
    Format settings, QPel : No
    Format settings, GMC : No warppoints
    Format settings, Matrix : Custom
    Codec ID : XVID
    Codec ID/Hint : XviD
    Duration : 1 h 30 min
    Bit rate : 1 274 kb/s
    Width : 720 pixels
    Height : 544 pixels
    Display aspect ratio : 4:3
    Frame rate : 25.000 FPS
    Color space : YUV
    Chroma subsampling : 4:2:0
    Bit depth : 8 bits
    Scan type : Progressive
    Compression mode : Lossy
    Bits/(Pixel*Frame) : 0.130
    Stream size : 826 MiB (91%)
    Writing library : XviD 1.2.1 (UTC 2008-12-04)
    Audio #1
    ID : 1
    Format : MPEG Audio
    Format version : Version 1
    Format profile : Layer 3
    Mode : Joint stereo
    Mode extension : MS Stereo
    Codec ID : 55
    Codec ID/Hint : MP3
    Duration : 1 h 30 min
    Bit rate mode : Variable
    Bit rate : 110 kb/s
    Nominal bit rate : 128 kb/s
    Channel(s) : 2 channels
    Sampling rate : 48.0 kHz
    Compression mode : Lossy
    Stream size : 71.5 MiB (8%)
    Alignment : Aligned on interleaves
    Interleave, duration : 24 ms (0.60 video frame)
    Interleave, preload duration : 561 ms
    Writing library : LAME3.98r
    Encoding settings : -m j -V 4 -q 2 -lowpass 17 --abr 128


    Code: 

    Link megtekintéséhez LÉPJ BE vagy REGISZTRÁLJ az oldalra

    vagy free
    Code: 

    Link megtekintéséhez LÉPJ BE vagy REGISZTRÁLJ az oldalra




  6. #13
    Status
    Offline
    papadi's Avatar
    Feltöltő
    Csatlakozott
    14-04-20
    Hozzászólások
    1.800
    Halott Témáim
    Nem, Újraélesztem
    Köszönöm
    377
    5.956 Kapott Köszi 1.482 Témáért


    Asterix & Obelix: Isten óvja Britanniát
    (Astérix et Obélix: Au service de Sa Majesté)
    Francia-spanyol-olasz magyar családi film (2012)
    Szereplők: Gérard Depardieu, Edouard Baer, Guillaume Gallienne, Catherine Deneuve, Valérie Lemercier, Dany Boon
    Rendezte: Laurent Tirard
    Hang: magyar, francia
    Felirat: magyar

    Julius Caesar újabb hódításokra szomjazik. Ezúttal Britanniát szemeli ki magának, ahol gyors és totális győzelmet arat… vagyis… csak majdnem. Egy kis falu képes ellenállni a császárnak, de gyengülnek az erőik. A királynő úgy dönt, elküldi leghűségesebb szolgáját, Angoltapaxot, hogy Galliában keressen segítséget egy másik kis faluban, amely a rómaiak elleni makacs ellenállásáról híres.
    A szóban forgó gall faluban Asterix és Obelix éppen igen elfoglalt. Vezetőjük ugyanis rájuk bízta unokaöccsét, a kamasz Kishippixet, akiből nekik kellene férfit faragniuk, ám eddig nem igazán jártak sikerrel.
    Amikor Angoltapax megérkezik, hogy a segítségüket kérje, a falu úgy dönt, átadnak neki egy hordó varázsitalt, amit Asterix és Obelix kísér el. Valamint Kishippix, mivel ez az út tökéletes alkalomnak ígérkezik, hogy befejezzék a fiú nevelését. Sajnos azonban semmi sem úgy alakul, mint várják…
    (a borítóról)



    Formátum: dvdrip/avi
    Méret: 1,55 GB
    Felbontás: 720x320
    Mintavételi frekvencia: 48000 Hz
    Bitsebesség: 128/113 kbps
    Műsoridő: 1:45:48

      Spoiler: Részletes média információ: 
    K:\Asterix (2012) Asterix és Obelix - Isten óvja Britanniat.avi
    General
    Complete name : K:\Asterix (2012) Asterix és Obelix - Isten óvja Britanniat.avi
    Format : AVI
    Format/Info : Audio Video Interleave
    File size : 1.55 GiB
    Duration : 1 h 45 min
    Overall bit rate mode : Variable
    Overall bit rate : 2 102 kb/s
    Writing application : VirtualDubMod 1.5.4.1 (build 2178/release)
    Writing library : VirtualDubMod build 2178/release
    Video #0
    ID : 0
    Format : MPEG-4 Visual
    Format profile : Advanced Simple@L5
    Format settings, BVOP : No
    Format settings, QPel : No
    Format settings, GMC : No warppoints
    Format settings, Matrix : Custom
    Codec ID : XVID
    Codec ID/Hint : XviD
    Duration : 1 h 45 min
    Bit rate : 1 855 kb/s
    Width : 720 pixels
    Height : 304 pixels
    Display aspect ratio : 2.35:1
    Frame rate : 25.000 FPS
    Color space : YUV
    Chroma subsampling : 4:2:0
    Bit depth : 8 bits
    Scan type : Progressive
    Compression mode : Lossy
    Bits/(Pixel*Frame) : 0.339
    Stream size : 1.37 GiB (88%)
    Writing library : XviD 1.2.1 (UTC 2008-12-04)
    Audio #1
    ID : 1
    Format : MPEG Audio
    Format version : Version 1
    Format profile : Layer 3
    Mode : Joint stereo
    Mode extension : MS Stereo
    Codec ID : 55
    Codec ID/Hint : MP3
    Duration : 1 h 45 min
    Bit rate mode : Variable
    Bit rate : 114 kb/s
    Nominal bit rate : 128 kb/s
    Channel(s) : 2 channels
    Sampling rate : 48.0 kHz
    Compression mode : Lossy
    Stream size : 86.0 MiB (5%)
    Alignment : Aligned on interleaves
    Interleave, duration : 24 ms (0.60 video frame)
    Interleave, preload duration : 162 ms
    Writing library : LAME3.98r
    Encoding settings : -m j -V 4 -q 2 -lowpass 17 --abr 128
    Audio #2
    ID : 2
    Format : MPEG Audio
    Format version : Version 1
    Format profile : Layer 3
    Mode : Joint stereo
    Mode extension : MS Stereo
    Codec ID : 55
    Codec ID/Hint : MP3
    Duration : 1 h 45 min
    Bit rate mode : Variable
    Bit rate : 113 kb/s
    Nominal bit rate : 128 kb/s
    Channel(s) : 2 channels
    Sampling rate : 48.0 kHz
    Compression mode : Lossy
    Stream size : 85.7 MiB (5%)
    Alignment : Aligned on interleaves
    Interleave, duration : 24 ms (0.60 video frame)
    Interleave, preload duration : 162 ms
    Writing library : LAME3.98r
    Encoding settings : -m j -V 4 -q 2 -lowpass 17 --abr 128


    Code: 

    Link megtekintéséhez LÉPJ BE vagy REGISZTRÁLJ az oldalra

    vagy free
    Code: 

    Link megtekintéséhez LÉPJ BE vagy REGISZTRÁLJ az oldalra




  7. Eddig 2 Felhasználó mondott köszönetet papadi felhaszlálónak ezért a témáért:

    Comondor (2018-10-10),Tegla (2018-10-30)

  8. #14
    Status
    Offline
    papadi's Avatar
    Feltöltő
    Csatlakozott
    14-04-20
    Hozzászólások
    1.800
    Halott Témáim
    Nem, Újraélesztem
    Köszönöm
    377
    5.956 Kapott Köszi 1.482 Témáért


    Asterix: Az Istenek otthona
    (Astérix: Le domaine des dieux)
    Francia animációs film (2014)
    Rendezte: Louis Clichy, Alexandre Astier
    Hang: magyar, francia
    Felirat: magyar

    Egyetlen gall falu lakói állnak ellen a hatalmas sereggel érkező hódítóknak. Julius Caesar úgy dönt, ha erővel nem megy, más módon hajtja rabigába a gallokat: a civilizáció örömeivel. A falu közelében építkezés kezdődik: a földből kinövő Istenek otthona minden kényelemmel felszerelt hazát ígér - ennek pedig nehéz ellenállni. Hőseink, Asterix és Obelix előrukkol egy ravasz tervvel, mely keresztülhúzza Cézár számításait. (a borítóról)



    Formátum: dvdrip/avi
    Méret: 1,20 GB
    Felbontás: 720x416
    Mintavételi frekvencia: 48000 Hz
    Bitsebesség: 128/116 kbps
    Műsoridő: 1:22:04

      Spoiler: Részletes média információ: 
    K:\Asterix (2014) Az Istenek otthona.avi
    General
    Complete name : K:\Asterix (2014) Az Istenek otthona.avi
    Format : AVI
    Format/Info : Audio Video Interleave
    File size : 1.20 GiB
    Duration : 1 h 22 min
    Overall bit rate mode : Variable
    Overall bit rate : 2 097 kb/s
    Writing application : VirtualDubMod 1.5.4.1 (build 2178/release)
    Writing library : VirtualDubMod build 2178/release
    Video #0
    ID : 0
    Format : MPEG-4 Visual
    Format profile : Advanced Simple@L5
    Format settings, BVOP : No
    Format settings, QPel : No
    Format settings, GMC : No warppoints
    Format settings, Matrix : Custom
    Codec ID : XVID
    Codec ID/Hint : XviD
    Duration : 1 h 22 min
    Bit rate : 1 845 kb/s
    Width : 720 pixels
    Height : 416 pixels
    Display aspect ratio : 1.731
    Frame rate : 25.000 FPS
    Color space : YUV
    Chroma subsampling : 4:2:0
    Bit depth : 8 bits
    Scan type : Progressive
    Compression mode : Lossy
    Bits/(Pixel*Frame) : 0.246
    Stream size : 1.06 GiB (88%)
    Writing library : XviD 1.2.1 (UTC 2008-12-04)
    Audio #1
    ID : 1
    Format : MPEG Audio
    Format version : Version 1
    Format profile : Layer 3
    Mode : Joint stereo
    Mode extension : MS Stereo
    Codec ID : 55
    Codec ID/Hint : MP3
    Duration : 1 h 22 min
    Bit rate mode : Variable
    Bit rate : 115 kb/s
    Nominal bit rate : 128 kb/s
    Channel(s) : 2 channels
    Sampling rate : 48.0 kHz
    Compression mode : Lossy
    Delay relative to video : 48 ms
    Stream size : 67.6 MiB (5%)
    Alignment : Split accross interleaves
    Interleave, duration : 24 ms (0.60 video frame)
    Interleave, preload duration : 640 ms
    Writing library : LAME3.98r
    Encoding settings : -m j -V 4 -q 2 -lowpass 17 --abr 128
    Audio #2
    ID : 2
    Format : MPEG Audio
    Format version : Version 1
    Format profile : Layer 3
    Mode : Joint stereo
    Mode extension : MS Stereo
    Codec ID : 55
    Codec ID/Hint : MP3
    Duration : 1 h 22 min
    Bit rate mode : Variable
    Bit rate : 116 kb/s
    Nominal bit rate : 128 kb/s
    Channel(s) : 2 channels
    Sampling rate : 48.0 kHz
    Compression mode : Lossy
    Delay relative to video : 48 ms
    Stream size : 68.3 MiB (6%)
    Alignment : Split accross interleaves
    Interleave, duration : 24 ms (0.60 video frame)
    Interleave, preload duration : 627 ms
    Writing library : LAME3.98r
    Encoding settings : -m j -V 4 -q 2 -lowpass 17 --abr 128


    Code: 

    Link megtekintéséhez LÉPJ BE vagy REGISZTRÁLJ az oldalra

    vagy free
    Code: 

    Link megtekintéséhez LÉPJ BE vagy REGISZTRÁLJ az oldalra




  9. Eddig 2 Felhasználó mondott köszönetet papadi felhaszlálónak ezért a témáért:

    Comondor (2018-10-10),fmisi (2018-10-16)

 

 
Page 2 of 2 FirstFirst 12

Jogosultságok

  • Nem nyithatsz Új Témát
  • Nem válaszolhatsz a Témában
  • Nem csatolhatsz állományt
  • Nem szerkesztheted a Hozzászólásaid
  •