Page 2 of 2 FirstFirst 12
Results 11 to 20 of 20
  1. #1
    Status
    Offline
    cobretti's Avatar
    Linkellenőr
    Csatlakozott
    13-09-30
    Hozzászólások
    5.776
    Halott Témáim
    Nem, Újraélesztem
    Köszönöm
    179
    180.309 Kapott Köszi 5.657 Témáért

    Marvel MoziUniverzum



    Hasonló témák:

  2. #11
    Status
    Offline
    cobretti's Avatar
    Linkellenőr
    Csatlakozott
    13-09-30
    Hozzászólások
    5.776
    Halott Témáim
    Nem, Újraélesztem
    Köszönöm
    179
    180.309 Kapott Köszi 5.657 Témáért

    10. Amerika Kapitány 2: A tél katonája [Captain America 2: The Winter Soldier] 2014



    Történet:
    A Marvel legújabb képregény-adaptációja, az Amerikai kapitány - A tél katonája a Bosszúállók eseményeit követően játszódik. Steve Rogers - aki az 1940-es évek elején vett részt az USA hadseregének titkos kísérletében - most Washingtonban éli csendes hétköznapjait és próbál alkalmazkodni a modern világ kihívásaihoz. Azonban amikor a terrorelhárítással és hírszerzéssel foglalkozó S.H.I.E.L.D. egyik munkatársát megtámadják, a férfi egy olyan összeesküvés közepén találja magát, amely az egész világot fenyegeti. Újra feltűnik a színen a Bosszúállók-ból ismert szövetségese, a Fekete Özvegy is, akivel minden erejükre szükségük lesz, hogy felderítsék a konspirációt és leküzdjék a megsemmisítésükre küldött bérgyilkosok hadát. Amikor rájönnek, hogy valójában mivel állnak szemben, felismerik, hogy további partnerekre lesz szükségük, ha győzni szeretnének. Csatlakozik hozzájuk legújabb szövetségesük, Sólyom is, azonban még így is minden erejükre szükségük lesz, mivel váratlanul egy rendkívül erős ellenféllel, a Tél Katonájával találják szemben magukat.


    Szereplők:
    Chris Evans (Steve Rogers / Amerika Kapitány) Sebastian Stan (Bucky Barnes) Scarlett Johansson (Natasha Romanoff) Samuel L. Jackson (Nick Fury) Cobie Smulders (Maria Hill) Robert Redford (Alexander Pierce) Hayley Atwell (Peggy Carter) Dominic Cooper (Howard Stark) Frank Grillo (Brock Rumlow / Crossbones) Anthony Mackie (Sam Wilson / The Falcon) Georges St. Pierre (Georges Batroc / Batroc the Leaper)


    Format : Matroska
    Format version : Version 4 / Version 2
    File size : 1.92 GiB
    Duration : 2 h 15 min
    Overall bit rate : 2 019 kb/s
    Encoded date : UTC 2014-08-08 19:11:42
    Writing application : mkvmerge v7.0.0 ('Where We Going') 64bit built on Jun 9 2014 15:16:27
    Writing library : libebml v1.3.0 + libmatroska v1.4.1

    Video
    ID : 1
    Format : AVC
    Format/Info : Advanced Video Codec
    Format profile : High@L4.1
    Format settings, CABAC : Yes
    Format settings, RefFrames : 16 frames
    Codec ID : V_MPEG4/ISO/AVC
    Duration : 2 h 15 min
    Bit rate : 1 377 kb/s
    Width : 720 pixels
    Height : 300 pixels
    Display aspect ratio : 2.40:1
    Frame rate mode : Constant
    Frame rate : 23.976 (24000/1001) FPS
    Color space : YUV
    Chroma subsampling : 4:2:0
    Bit depth : 8 bits
    Scan type : Progressive
    Bits/(Pixel*Frame) : 0.266
    Stream size : 1.31 GiB (68%)
    Writing library : x264 core 140 r2377 1ca7bb9
    Encoding settings : cabac=1 / ref=16 / deblock=1:-3:-3 / analyse=0x3:0x133 / me=umh / subme=9 / psy=1 / psy_rd=1.05:0.00 / mixed_ref=1 / me_range=32 / chroma_me=1 / trellis=2 / 8x8dct=1 / cqm=0 / deadzone=21,11 / fast_pskip=0 / chroma_qp_offset=-2 / threads=6 / lookahead_threads=1 / sliced_threads=0 / nr=0 / decimate=1 / interlaced=0 / bluray_compat=0 / constrained_intra=0 / bframes=6 / b_pyramid=2 / b_adapt=2 / b_bias=0 / direct=3 / weightb=1 / open_gop=0 / weightp=2 / keyint=250 / keyint_min=23 / scenecut=40 / intra_refresh=0 / rc=crf / mbtree=0 / crf=16.0 / qcomp=0.80 / qpmin=0 / qpmax=69 / qpstep=4 / ip_ratio=1.40 / pb_ratio=1.30 / aq=1:0.80
    Language : Hungarian
    Default : Yes
    Forced : No

    Audio
    ID : 2
    Format : AC-3
    Format/Info : Audio Coding 3
    Format settings, Endianness : Big
    Codec ID : A_AC3
    Duration : 2 h 15 min
    Bit rate mode : Constant
    Bit rate : 640 kb/s
    Channel(s) : 6 channels
    Channel positions : Front: L C R, Side: L R, LFE
    Sampling rate : 48.0 kHz
    Frame rate : 31.250 FPS (1536 SPF)
    Bit depth : 16 bits
    Compression mode : Lossy
    Stream size : 622 MiB (32%)
    Language : Hungarian
    Service kind : Complete Main
    Default : Yes
    Forced : No

    Text #1
    ID : 3
    Format : UTF-8
    Codec ID : S_TEXT/UTF8
    Codec ID/Info : UTF-8 Plain Text
    Duration : 2 h 1 min
    Bit rate : 1 b/s
    Count of elements : 55
    Stream size : 1.19 KiB (0%)
    Language : Hungarian
    Default : Yes
    Forced : Yes

    Text #2
    ID : 4
    Format : UTF-8
    Codec ID : S_TEXT/UTF8
    Codec ID/Info : UTF-8 Plain Text
    Duration : 2 h 14 min
    Bit rate : 44 b/s
    Count of elements : 1535
    Stream size : 43.5 KiB (0%)
    Language : Hungarian
    Default : No
    Forced : No


    **Rejtett tartalom: Klikkelj a Köszönöm gombra, ha szeretnéd látni**



  3. Eddig 10 Felhasználó mondott köszönetet cobretti felhaszlálónak ezért a témáért:

    bagoly01 (2018-09-02),johndoe2004 (2018-09-10),jules67 (2018-09-02),ragadozo7 (2018-09-16),ts117 (2018-09-04),Tyutyi2013 (Ma),vimi80 (2018-09-20),Wendriner Aladár (2018-09-13),zoli01 (2018-09-09),zrbla (2018-09-11)

  4. #12
    Status
    Offline
    cobretti's Avatar
    Linkellenőr
    Csatlakozott
    13-09-30
    Hozzászólások
    5.776
    Halott Témáim
    Nem, Újraélesztem
    Köszönöm
    179
    180.309 Kapott Köszi 5.657 Témáért

    11. Hangya [Ant-Man] 2015



    Történet:
    A történet főszereplője a szélhámos Scott Lang, akinek különleges képessége, hogy rendkívül apróra tud zsugorodni, miközben megsokszorozza erejét. A csaló Lang arra kényszerül, hogy egykori mentora, Dr. Hank Pym védelmére keljen, aki kifejlesztette számára speciális ruháját. Pym és Lang közösen kell, hogy dolgozzon, annak érdekében, hogy a technológiára áhítozó gonosz erőket megfékezzék, ehhez pedig végre kell hajtsák az évezred betörését.


    Szereplők:
    Evangeline Lilly (Hope Van Dyne) Hayley Atwell (Peggy Carter) Paul Rudd (Scott Lang / Hangya) Judy Greer (Maggie) Corey Stoll (Darren Cross / Yellowjacket) Michael Douglas (Hank Pym) Bobby Cannavale (Paxton) Wood Harris (Gale) Michael Pena (Luis) John Slattery (Howard Stark)


    Format : Matroska
    Format version : Version 4 / Version 2
    File size : 1.27 GiB
    Duration : 1 h 57 min
    Overall bit rate : 1 553 kb/s
    Encoded date : UTC 2015-11-27 15:23:46
    Writing application : mkvmerge v8.3.0 ('Over the Horizon') 32bit
    Writing library : libebml v1.3.1 + libmatroska v1.4.2

    Video
    ID : 1
    Format : AVC
    Format/Info : Advanced Video Codec
    Format profile : High@L4.1
    Format settings, CABAC : Yes
    Format settings, RefFrames : 16 frames
    Codec ID : V_MPEG4/ISO/AVC
    Duration : 1 h 57 min
    Bit rate : 1 168 kb/s
    Width : 720 pixels
    Height : 390 pixels
    Display aspect ratio : 1.85:1
    Frame rate mode : Constant
    Frame rate : 23.976 FPS
    Color space : YUV
    Chroma subsampling : 4:2:0
    Bit depth : 8 bits
    Scan type : Progressive
    Bits/(Pixel*Frame) : 0.174
    Stream size : 981 MiB (75%)
    Title : x264 @ HRT
    Writing library : x264 core 146 r2538 121396c
    Encoding settings : cabac=1 / ref=16 / deblock=1:-3:-3 / analyse=0x3:0x133 / me=umh / subme=10 / psy=1 / psy_rd=1.05:0.00 / mixed_ref=0 / me_range=24 / chroma_me=1 / trellis=2 / 8x8dct=1 / cqm=0 / deadzone=21,11 / fast_pskip=0 / chroma_qp_offset=-2 / threads=3 / lookahead_threads=1 / sliced_threads=0 / nr=0 / decimate=0 / interlaced=0 / bluray_compat=0 / constrained_intra=0 / bframes=8 / b_pyramid=2 / b_adapt=2 / b_bias=0 / direct=3 / weightb=1 / open_gop=0 / weightp=2 / keyint=250 / keyint_min=23 / scenecut=40 / intra_refresh=0 / rc_lookahead=40 / rc=crf / mbtree=0 / crf=18.0 / qcomp=0.70 / qpmin=10 / qpmax=60 / qpstep=4 / vbv_maxrate=50000 / vbv_bufsize=62500 / crf_max=0.0 / nal_hrd=none / filler=0 / ip_ratio=1.30 / pb_ratio=1.40 / aq=3:0.85
    Language : English
    Default : Yes
    Forced : No
    Color range : Limited
    Color primaries : BT.709
    Transfer characteristics : BT.709
    Matrix coefficients : BT.709

    Audio
    ID : 2
    Format : AC-3
    Format/Info : Audio Coding 3
    Format settings, Endianness : Big
    Codec ID : A_AC3
    Duration : 1 h 57 min
    Bit rate mode : Constant
    Bit rate : 384 kb/s
    Channel(s) : 6 channels
    Channel positions : Front: L C R, Side: L R, LFE
    Sampling rate : 48.0 kHz
    Frame rate : 31.250 FPS (1536 SPF)
    Bit depth : 16 bits
    Compression mode : Lossy
    Stream size : 322 MiB (25%)
    Title : Hungarian DD5.1 @ 384 kbps
    Language : Hungarian
    Service kind : Complete Main
    Default : Yes
    Forced : No

    Text #1
    ID : 3
    Format : UTF-8
    Codec ID : S_TEXT/UTF8
    Codec ID/Info : UTF-8 Plain Text
    Duration : 1 h 19 min
    Bit rate : 0 b/s
    Count of elements : 6
    Stream size : 112 Bytes (0%)
    Title : Hungarian Forced
    Language : Hungarian
    Default : Yes
    Forced : Yes

    Text #2
    ID : 4
    Format : UTF-8
    Codec ID : S_TEXT/UTF8
    Codec ID/Info : UTF-8 Plain Text
    Duration : 1 h 56 min
    Bit rate : 51 b/s
    Count of elements : 1532
    Stream size : 44.4 KiB (0%)
    Title : Hungarian Full
    Language : Hungarian
    Default : No
    Forced : No


    **Rejtett tartalom: Klikkelj a Köszönöm gombra, ha szeretnéd látni**



  5. Eddig 11 Felhasználó mondott köszönetet cobretti felhaszlálónak ezért a témáért:

    adori (2018-09-05),bagoly01 (2018-09-02),buratino02 (2018-09-15),glory74 (Tegnap),johndoe2004 (2018-09-10),karlgros (2018-09-02),krisz7509 (2018-09-07),ragadozo7 (2018-09-16),Serpentin (2018-09-10),Tibann (2018-09-18),zrbla (2018-09-11)

  6. #13
    Status
    Offline
    cobretti's Avatar
    Linkellenőr
    Csatlakozott
    13-09-30
    Hozzászólások
    5.776
    Halott Témáim
    Nem, Újraélesztem
    Köszönöm
    179
    180.309 Kapott Köszi 5.657 Témáért

    12. Bosszúállók 2: Ultron kora [Avengers 2: Age of Ultron] 2015



    Történet:
    Amikor Tony Stark újra életet akar lehelni a parkolópályára állított békefenntartó programba, nem minden sikerül a tervei szerint. A Föld legnagyobb hőseinek, vagyis Vasembernek, Amerika kapitánynak, Thornak, a Hihetetlen Hulknak, a Fekete Özvegynek és Sólyomszemnek ezúttal a legvégső megmérettetésen kell helytállniuk, mivel a bolygó sorsáról van szó. A rettegett Ultron megjelenésével a Bosszúállókra vár a feladat, hogy megakadályozzák ördögi terve megvalósítását. Az egyedülálló, globális kaland azonban csupán vonakodva megköttetett szövetségek és nem várt események árán teljesedhet ki.


    Szereplők:
    Scarlett Johansson (Natasha Romanoff / Black Widow) Chris Hemsworth (Thor) Chris Evans (Steve Rogers / Captain America) Cobie Smulders (Maria Hill) Elizabeth Olsen (Wanda Maximoff / Scarlet Witch) James Spader (Ultron) Aaron Taylor-Johnson (Pietro Maximoff / Quicksilver) Robert Downey Jr. (Tony Stark / Iron Man) Mark Ruffalo (Bruce Banner / The Hulk)


    Format : Matroska
    Format version : Version 4 / Version 2
    File size : 1.54 GiB
    Duration : 2 h 21 min
    Overall bit rate : 1 557 kb/s
    Encoded date : UTC 2015-09-17 19:43:36
    Writing application : mkvmerge v7.9.0 ('Birds') 32bit
    Writing library : libebml v1.3.1 + libmatroska v1.4.2

    Video
    ID : 1
    Format : AVC
    Format/Info : Advanced Video Codec
    Format profile : High@L4.1
    Format settings, CABAC : Yes
    Format settings, RefFrames : 16 frames
    Codec ID : V_MPEG4/ISO/AVC
    Duration : 2 h 21 min
    Bit rate : 1 172 kb/s
    Width : 720 pixels
    Height : 302 pixels
    Display aspect ratio : 2.40:1
    Frame rate mode : Constant
    Frame rate : 23.976 FPS
    Color space : YUV
    Chroma subsampling : 4:2:0
    Bit depth : 8 bits
    Scan type : Progressive
    Bits/(Pixel*Frame) : 0.225
    Stream size : 1.16 GiB (75%)
    Title : x264 @ HRT
    Writing library : x264 core 146 r2538 121396c
    Encoding settings : cabac=1 / ref=16 / deblock=1:-3:-3 / analyse=0x3:0x133 / me=umh / subme=10 / psy=1 / psy_rd=1.00:0.00 / mixed_ref=0 / me_range=16 / chroma_me=1 / trellis=2 / 8x8dct=1 / cqm=0 / deadzone=21,11 / fast_pskip=0 / chroma_qp_offset=-2 / threads=3 / lookahead_threads=1 / sliced_threads=0 / nr=0 / decimate=0 / interlaced=0 / bluray_compat=0 / constrained_intra=0 / bframes=8 / b_pyramid=2 / b_adapt=2 / b_bias=0 / direct=3 / weightb=1 / open_gop=0 / weightp=2 / keyint=250 / keyint_min=23 / scenecut=40 / intra_refresh=0 / rc_lookahead=40 / rc=crf / mbtree=0 / crf=17.0 / qcomp=0.70 / qpmin=10 / qpmax=60 / qpstep=4 / vbv_maxrate=50000 / vbv_bufsize=62500 / crf_max=0.0 / nal_hrd=none / filler=0 / ip_ratio=1.30 / pb_ratio=1.40 / aq=3:0.90
    Language : English
    Default : Yes
    Forced : No
    Color range : Limited
    Color primaries : BT.709
    Transfer characteristics : BT.709
    Matrix coefficients : BT.709

    Audio
    ID : 2
    Format : AC-3
    Format/Info : Audio Coding 3
    Format settings, Endianness : Big
    Codec ID : A_AC3
    Duration : 2 h 21 min
    Bit rate mode : Constant
    Bit rate : 384 kb/s
    Channel(s) : 6 channels
    Channel positions : Front: L C R, Side: L R, LFE
    Sampling rate : 48.0 kHz
    Frame rate : 31.250 FPS (1536 SPF)
    Bit depth : 16 bits
    Compression mode : Lossy
    Stream size : 388 MiB (25%)
    Title : Hungarian DD5.1 @ 384 kbps
    Language : Hungarian
    Service kind : Complete Main
    Default : Yes
    Forced : No

    Text #1
    ID : 3
    Format : UTF-8
    Codec ID : S_TEXT/UTF8
    Codec ID/Info : UTF-8 Plain Text
    Duration : 1 h 29 min
    Bit rate : 0 b/s
    Count of elements : 21
    Stream size : 438 Bytes (0%)
    Title : Hungarian Forced
    Language : Hungarian
    Default : Yes
    Forced : Yes

    Text #2
    ID : 4
    Format : UTF-8
    Codec ID : S_TEXT/UTF8
    Codec ID/Info : UTF-8 Plain Text
    Duration : 2 h 20 min
    Bit rate : 50 b/s
    Count of elements : 1882
    Stream size : 52.0 KiB (0%)
    Title : Hungarian Full
    Language : Hungarian
    Default : No
    Forced : No


    **Rejtett tartalom: Klikkelj a Köszönöm gombra, ha szeretnéd látni**



  7. Eddig 4 Felhasználó mondott köszönetet cobretti felhaszlálónak ezért a témáért:

    johndoe2004 (2018-09-10),ragadozo7 (2018-09-16),zoli01 (2018-09-09),zrbla (2018-09-11)

  8. #14
    Status
    Offline
    cobretti's Avatar
    Linkellenőr
    Csatlakozott
    13-09-30
    Hozzászólások
    5.776
    Halott Témáim
    Nem, Újraélesztem
    Köszönöm
    179
    180.309 Kapott Köszi 5.657 Témáért

    13. Doctor Strange 2016



    Történet:
    Miután egy végzetes balesetben kettétört a karrierje, a zseniális, de arrogáns sebész új életet kezd egy varázsló szárnyai alatt, aki kiképezi őt, hogy szembeszállhasson a világot fenyegető gonosz erőkkel...


    Szereplők:
    Rachel McAdams, Benedict Cumberbatch, Tilda Swinton, Chiwetel Ejiofor, Mads Mikkelsen, Michael Stuhlbarg, Scott Adkins, Benedict Wong, Amy Landecker


    Format : Matroska
    Format version : Version 4 / Version 2
    File size : 1.02 GiB
    Duration : 1 h 54 min
    Overall bit rate : 1 266 kb/s
    Encoded date : UTC 2017-03-03 17:43:31
    Writing application : mkvmerge v8.0.0 ('Til The Day That I Die') 64bit
    Writing library : libebml v1.3.1 + libmatroska v1.4.2

    Video
    ID : 1
    Format : AVC
    Format/Info : Advanced Video Codec
    Format profile : High@L4.1
    Format settings, CABAC : Yes
    Format settings, RefFrames : 16 frames
    Codec ID : V_MPEG4/ISO/AVC
    Duration : 1 h 54 min
    Bit rate : 1 040 kb/s
    Width : 720 pixels
    Height : 302 pixels
    Display aspect ratio : 2.40:1
    Frame rate mode : Constant
    Frame rate : 23.976 (24000/1001) FPS
    Color space : YUV
    Chroma subsampling : 4:2:0
    Bit depth : 8 bits
    Scan type : Progressive
    Bits/(Pixel*Frame) : 0.199
    Stream size : 855 MiB (82%)
    Writing library : x264 core 148 r2744kMod b97ae06
    Encoding settings : cabac=1 / ref=16 / deblock=1:-3:-3 / analyse=0x3:0x133 / me=umh / subme=10 / psy=1 / fade_compensate=0.00 / psy_rd=1.05:0.00 / mixed_ref=1 / me_range=32 / chroma_me=1 / trellis=2 / 8x8dct=1 / cqm=0 / deadzone=21,11 / fast_pskip=0 / chroma_qp_offset=-2 / threads=9 / lookahead_threads=1 / sliced_threads=0 / nr=0 / decimate=0 / interlaced=0 / bluray_compat=0 / constrained_intra=0 / bframes=7 / b_pyramid=2 / b_adapt=2 / b_bias=0 / direct=3 / weightb=1 / open_gop=0 / weightp=2 / keyint=250 / keyint_min=23 / scenecut=40 / intra_refresh=0 / rc=crf / mbtree=0 / crf=16.3000 / qcomp=0.65 / qpmin=0 / qpmax=69 / qpstep=4 / ip_ratio=1.35 / pb_ratio=1.25 / aq=2:0.80
    Language : English
    Default : Yes
    Forced : No

    Audio
    ID : 2
    Format : AC-3
    Format/Info : Audio Coding 3
    Format settings, Endianness : Big
    Codec ID : A_AC3
    Duration : 1 h 54 min
    Bit rate mode : Constant
    Bit rate : 224 kb/s
    Channel(s) : 2 channels
    Channel positions : Front: L R
    Sampling rate : 48.0 kHz
    Frame rate : 31.250 FPS (1536 SPF)
    Bit depth : 16 bits
    Compression mode : Lossy
    Stream size : 184 MiB (18%)
    Language : Hungarian
    Service kind : Complete Main
    Default : Yes
    Forced : No

    Text
    ID : 3
    Format : UTF-8
    Codec ID : S_TEXT/UTF8
    Codec ID/Info : UTF-8 Plain Text
    Duration : 1 h 33 min
    Bit rate : 0 b/s
    Count of elements : 3
    Stream size : 54.0 Bytes (0%)
    Language : Hungarian
    Default : Yes
    Forced : Yes

    Menu
    00:00:00.000 : en:Prologue
    00:04:34.566 : en:The Good Doctor
    00:10:16.825 : en:Medicine And Mania
    00:18:32.153 : en:Kamar-Taj
    00:24:37.017 : en:Open Your Eye
    00:31:40.482 : en:The Mystic Arts
    00:38:33.811 : en:Surrender
    00:43:16.135 : en:Infinite Dangers
    00:48:24.527 : en:Eye of Agamotto
    00:55:34.498 : en:Sanctum Siege
    01:05:04.359 : en:Astral Battle
    01:12:38.437 : en:Manhattan Mirror Dimension
    01:22:14.346 : en:It's Not About You
    01:28:28.637 : enefending Hong Kong
    01:35:00.904 : en:The Dark Dimension
    01:45:06.509 : en:End Credits


    **Rejtett tartalom: Klikkelj a Köszönöm gombra, ha szeretnéd látni**



  9. Eddig 12 Felhasználó mondott köszönetet cobretti felhaszlálónak ezért a témáért:

    adori (2018-09-05),johndoe2004 (2018-09-10),jules67 (2018-09-02),karlgros (2018-09-02),kyger (2018-09-22),liberador (2018-09-21),ragadozo7 (2018-09-16),Serpentin (2018-09-10),Tibann (2018-09-18),vimi80 (2018-09-20),zoli01 (2018-09-09),zozo76 (2018-09-20)

  10. #15
    Status
    Offline
    cobretti's Avatar
    Linkellenőr
    Csatlakozott
    13-09-30
    Hozzászólások
    5.776
    Halott Témáim
    Nem, Újraélesztem
    Köszönöm
    179
    180.309 Kapott Köszi 5.657 Témáért

    14. Amerika kapitány 3: Polgárháború [Captain America 3: Civil War] 2016



    Történet:
    A Bosszúállók: Ultron kora eseményeit követően a világ kormányai határozatban döntenek arról, hogy szabályozzák a szuperhősök tevékenységeit. A határozat megosztja a Bosszúállókat is. Míg az egyik oldal érdekeit a Vasember, a másikét Amerika kapitány képviseli. A konfliktus kiéleződik, a két korábbi szövetséges közti összecsapás elkerülhetetlenné válik...


    Szereplők:
    Tom Holland, Elizabeth Olsen, Scarlett Johansson, Chris Evans, Robert Downey Jr., Sebastian Stan, Chadwick Boseman, Marisa Tomei, Paul Rudd


    Format : Matroska
    Format version : Version 4 / Version 2
    File size : 1.50 GiB
    Duration : 2 h 27 min
    Overall bit rate : 1 453 kb/s
    Encoded date : UTC 2016-09-10 14:42:22
    Writing application : mkvmerge v8.0.0 ('Til The Day That I Die') 64bit
    Writing library : libebml v1.3.1 + libmatroska v1.4.2

    Video
    ID : 1
    Format : AVC
    Format/Info : Advanced Video Codec
    Format profile : High@L4.1
    Format settings, CABAC : Yes
    Format settings, RefFrames : 16 frames
    Codec ID : V_MPEG4/ISO/AVC
    Duration : 2 h 27 min
    Bit rate : 1 067 kb/s
    Width : 720 pixels
    Height : 302 pixels
    Display aspect ratio : 2.40:1
    Frame rate mode : Constant
    Frame rate : 23.976 (24000/1001) FPS
    Color space : YUV
    Chroma subsampling : 4:2:0
    Bit depth : 8 bits
    Scan type : Progressive
    Bits/(Pixel*Frame) : 0.205
    Stream size : 1.10 GiB (73%)
    Writing library : x264 core 148 r2705kMod 3f5ed56
    Encoding settings : cabac=1 / ref=16 / deblock=1:-3:-3 / analyse=0x3:0x133 / me=umh / subme=11 / psy=1 / fade_compensate=0.00 / psy_rd=1.05:0.00 / mixed_ref=1 / me_range=24 / chroma_me=1 / trellis=2 / 8x8dct=1 / cqm=0 / deadzone=21,11 / fast_pskip=0 / chroma_qp_offset=-2 / threads=9 / lookahead_threads=1 / sliced_threads=0 / nr=0 / decimate=0 / interlaced=0 / bluray_compat=0 / constrained_intra=0 / fgo=0 / bframes=8 / b_pyramid=2 / b_adapt=2 / b_bias=0 / direct=3 / weightb=1 / open_gop=0 / weightp=2 / keyint=250 / keyint_min=23 / scenecut=40 / intra_refresh=0 / rc=crf / mbtree=0 / crf=16.5000 / qcomp=0.60 / qpmin=0 / qpmax=69 / qpstep=4 / ip_ratio=1.30 / pb_ratio=1.20 / aq=2:0.80
    Language : English
    Default : Yes
    Forced : No

    Audio
    ID : 2
    Format : AC-3
    Format/Info : Audio Coding 3
    Format settings, Endianness : Big
    Codec ID : A_AC3
    Duration : 2 h 27 min
    Bit rate mode : Constant
    Bit rate : 384 kb/s
    Channel(s) : 6 channels
    Channel positions : Front: L C R, Side: L R, LFE
    Sampling rate : 48.0 kHz
    Frame rate : 31.250 FPS (1536 SPF)
    Bit depth : 16 bits
    Compression mode : Lossy
    Stream size : 406 MiB (26%)
    Language : Hungarian
    Service kind : Complete Main
    Default : Yes
    Forced : No

    Text #1
    ID : 3
    Format : UTF-8
    Codec ID : S_TEXT/UTF8
    Codec ID/Info : UTF-8 Plain Text
    Duration : 1 h 44 min
    Bit rate : 1 b/s
    Count of elements : 63
    Stream size : 1.12 KiB (0%)
    Language : Hungarian
    Default : Yes
    Forced : Yes

    Text #2
    ID : 4
    Format : UTF-8
    Codec ID : S_TEXT/UTF8
    Codec ID/Info : UTF-8 Plain Text
    Duration : 2 h 26 min
    Bit rate : 46 b/s
    Count of elements : 1688
    Stream size : 49.8 KiB (0%)
    Language : Hungarian
    Default : No
    Forced : No

    Menu
    00:00:00.000 : en:Prologue
    00:09:01.958 : en:Lagos
    00:13:04.992 : en:I'm Right Where I Want to Be
    00:21:03.345 : en:The Sokovia Accords
    00:27:53.380 : en:We Need to Be Put in Check
    00:31:57.290 : en:Peggy's Funeral
    00:35:08.397 : en:Supporting the Initiative
    00:42:58.450 : en:It Always Ends in a Fight
    00:52:04.621 : en:Bucky's Evaluation
    01:05:39.101 : en:Breakout
    01:16:41.638 : en:Queens
    01:22:28.777 : en:Hawkeye Returns
    01:29:29.489 : en:You're After the Wrong Guy
    01:34:09.769 : en:We Fight
    01:45:38.582 : en:We Played This Wrong
    01:55:54.322 : en:Zemo Revealed
    02:02:35.056 : en:Steve vs. Tony
    02:12:14.176 : en:We All Need Family
    02:18:29.384 : en:End Credits


    **Rejtett tartalom: Klikkelj a Köszönöm gombra, ha szeretnéd látni**



  11. Eddig 5 Felhasználó mondott köszönetet cobretti felhaszlálónak ezért a témáért:

    johndoe2004 (2018-09-10),liberador (2018-09-21),ragadozo7 (2018-09-16),ts117 (2018-09-04),zoli01 (2018-09-09)

  12. #16
    Status
    Offline
    cobretti's Avatar
    Linkellenőr
    Csatlakozott
    13-09-30
    Hozzászólások
    5.776
    Halott Témáim
    Nem, Újraélesztem
    Köszönöm
    179
    180.309 Kapott Köszi 5.657 Témáért

    15. Pókember: Hazatérés [Spider-Man: Homecoming] 2017



    Történet:
    Peter Parker élete, radikális változásokon ment keresztül amikor egy genetikailag módosított pók csípése nagy erővel ruházza fel. Tipikus középsulis srácként élte, az életét de rájön, hogy az ereje áldás, nem átok. Emberi életeket ment, majd egy traumán is túlesik ugyanis apai nagybátyja meghal, aki egyébként fiaként nevelte a kamaszt. Pókember feltűnik az Amerika kapitány polgárháború című filmben, ahol Tony Stark oldalán küzd a kapitány csapata ellen. Ruháját Tony Stark készítette el neki, mert az előző amit Peter saját maga készített nem éppen volt megnyerő. Ez a ruha lesz rajta a filmben, így nagy valószínűséggel az idővonalon elhelyezkedve a történet a polgárháború után játszódik. A városban új ellenség üti fel a fejét, a képregényekből már ismerhetjük de filmes adaptációban most láthatjuk először keselyűt. Az biztos nagyon jó csata lesz, mást nem is várhatunk a Marvel univerzumától...


    Szereplők:
    Tom Holland, Marisa Tomei, Zendaya, Donald Glover, Robert Downey Jr., Michael Keaton, Jon Favreau, Martin Starr, Logan Marshall-Green, Garcelle Beauvais


    Format : Matroska
    Format version : Version 4 / Version 2
    File size : 1.46 GiB
    Duration : 2 h 13 min
    Overall bit rate : 1 566 kb/s
    Encoded date : UTC 2017-10-21 13:46:48
    Writing application : mkvmerge v16.0.0 ('Protest') 64-bit
    Writing library : libebml v1.3.5 + libmatroska v1.4.8

    Video
    ID : 1
    Format : AVC
    Format/Info : Advanced Video Codec
    Format profile : High@L4.1
    Format settings, CABAC : Yes
    Format settings, RefFrames : 16 frames
    Codec ID : V_MPEG4/ISO/AVC
    Duration : 2 h 13 min
    Bit rate : 1 116 kb/s
    Width : 720 pixels
    Height : 300 pixels
    Display aspect ratio : 2.40:1
    Frame rate mode : Constant
    Frame rate : 23.976 (24000/1001) FPS
    Color space : YUV
    Chroma subsampling : 4:2:0
    Bit depth : 8 bits
    Scan type : Progressive
    Bits/(Pixel*Frame) : 0.216
    Stream size : 1.04 GiB (71%)
    Writing library : x264 core 152 r2851kMod ba24899
    Encoding settings : cabac=1 / ref=16 / deblock=1:-3:-3 / analyse=0x3:0x133 / me=umh / subme=9 / psy=1 / fade_compensate=0.00 / psy_rd=1.00:0.00 / mixed_ref=1 / me_range=32 / chroma_me=1 / trellis=2 / 8x8dct=1 / cqm=0 / deadzone=21,11 / fast_pskip=0 / chroma_qp_offset=-2 / threads=9 / lookahead_threads=1 / sliced_threads=0 / nr=0 / decimate=0 / interlaced=0 / bluray_compat=0 / constrained_intra=0 / bframes=6 / b_pyramid=2 / b_adapt=2 / b_bias=0 / direct=3 / weightb=1 / open_gop=0 / weightp=2 / keyint=250 / keyint_min=23 / scenecut=40 / intra_refresh=0 / rc=crf / mbtree=0 / crf=17.0000 / qcomp=0.60 / qpmin=0 / qpmax=69 / qpstep=4 / ip_ratio=1.30 / pb_ratio=1.20 / aq=2:0.80
    Language : English
    Default : Yes
    Forced : No

    Audio
    ID : 2
    Format : AC-3
    Format/Info : Audio Coding 3
    Format settings, Endianness : Big
    Codec ID : A_AC3
    Duration : 2 h 13 min
    Bit rate mode : Constant
    Bit rate : 448 kb/s
    Channel(s) : 6 channels
    Channel positions : Front: L C R, Side: L R, LFE
    Sampling rate : 48.0 kHz
    Frame rate : 31.250 FPS (1536 SPF)
    Bit depth : 16 bits
    Compression mode : Lossy
    Stream size : 428 MiB (29%)
    Language : Hungarian
    Service kind : Complete Main
    Default : Yes
    Forced : No

    Text #1
    ID : 3
    Format : UTF-8
    Codec ID : S_TEXT/UTF8
    Codec ID/Info : UTF-8 Plain Text
    Duration : 1 h 59 min
    Bit rate : 0 b/s
    Count of elements : 11
    Stream size : 266 Bytes (0%)
    Language : Hungarian
    Default : Yes
    Forced : Yes

    Text #2
    ID : 4
    Format : UTF-8
    Codec ID : S_TEXT/UTF8
    Codec ID/Info : UTF-8 Plain Text
    Duration : 2 h 12 min
    Bit rate : 60 b/s
    Count of elements : 1813
    Stream size : 58.9 KiB (0%)
    Language : Hungarian
    Default : No
    Forced : No

    Menu
    00:00:00.000 : en:Columbia Studio Logos
    00:00:35.452 : en:Toomes loses a job and gains a new one
    00:04:57.547 : en:Marvel Logo
    00:05:32.499 : en:a Film by Peter Parker
    00:09:56.429 : en:Peter waits the school day out
    00:14:33.998 : en:Spider-Man keeps the neighborhood friendly
    00:18:06.836 : en:Spider-Man battles the Avengers
    00:21:48.974 : en:Peter finds a surprise at home
    00:25:45.043 : en:Ned asks for all the details
    00:29:11.333 : en:Peter debates bringing Spider-Man to the party
    00:31:25.592 : en:Spider-Man chases after a van
    00:36:17.884 : en:Tony instructs Peter to stand down
    00:39:18.606 : en:Toomes attempts to reason with his crew
    00:42:25.251 : en:Ned helps Peter with a shop project
    00:46:03.886 : en:Peter rejoins the team
    00:50:25.814 : en:Spider-Man makes a new friend while tracking bad guys
    00:54:38.817 : en:Spider-Man races back to his team
    00:58:48.817 : en:The Decathlon Team celebrates at the Washington Monument
    01:05:10.240 : en:Toomes contemplates his recent run of bad luck
    01:06:14.804 : en:The Decathlon team is welcomed back as heroes
    01:08:39.615 : en:Peter tries out interrogation mode
    01:12:07.907 : en:Spider-Man commutes on the ferry
    01:19:45.322 : en:Toomes calls for a bigger job
    01:20:24.194 : en:Perter faces the consequences of his mistake
    01:23:35.719 : en:Peter turns himself around
    01:26:56.795 : en:Peter meets Liz's family
    01:29:41.459 : en:Toomes gives Peter the Dad talk
    01:34:12.522 : en:Peter leaves the dance early
    01:36:34.163 : en:Ned gives Spider-Man directions
    01:39:05.606 : en:Spider-Man locates the Vulture's lair
    01:42:28.684 : en:Peter picks himself up
    01:44:41.192 : en:Vulture takes to the sky
    01:50:31.083 : en:Spider-Man and Vulture battle
    01:54:31.073 : en:Peter says a difficult goodbye
    01:56:01.663 : en:The Decathlon Team celebrates their win
    01:57:53.525 : en:Tony makes Peter an offer
    02:02:18.623 : en:Peter suits up
    02:02:56.035 : en:End Credits
    02:05:05.248 : en:Toomes encounters a former business partner
    02:05:59.051 : en:End Credits Continued
    02:12:30.067 : en:Patience
    02:13:01.140 : en:Spider-Man will return


    **Rejtett tartalom: Klikkelj a Köszönöm gombra, ha szeretnéd látni**



  13. Eddig 9 Felhasználó mondott köszönetet cobretti felhaszlálónak ezért a témáért:

    detterw9 (2018-09-12),glory74 (Tegnap),johndoe2004 (2018-09-10),karlgros (2018-09-02),liberador (2018-09-21),ragadozo7 (2018-09-16),Serpentin (2018-09-11),vimi80 (2018-09-20),zoli01 (2018-09-09)

  14. #17
    Status
    Offline
    cobretti's Avatar
    Linkellenőr
    Csatlakozott
    13-09-30
    Hozzászólások
    5.776
    Halott Témáim
    Nem, Újraélesztem
    Köszönöm
    179
    180.309 Kapott Köszi 5.657 Témáért

    16. A Galaxis Őrzői 2 [Guardians of the Galaxy Vol. 2] 2017



    Történet:
    Az újdonsült csapat útnak indul, hogy felkutassa Peter Quill (Chris Pratt) vérszerinti apját, és megtudják, hogy honnan is származik valójában. Felcsendül az "Awesme Mix vol 2" válogatŕs kazetta , feltünnek ismert arcok mint Yondu (Michael Roker) az útonállók vezére aki értékes információkkal rendelkezik "Star-Lord" apjának a kilétéről...

    Szereplők:
    Dave Bautista, Chris Pratt, Bradley Cooper, Zoe Saldana, Vin Diesel, Karen Gillan, Benicio del Toro, Michael Rooker, Pom Klementieff, Sean Gunn


    Format : Matroska
    Format version : Version 4 / Version 2
    File size : 1.65 GiB
    Duration : 2 h 15 min
    Overall bit rate : 1 736 kb/s
    Encoded date : UTC 2017-09-15 18:27:35
    Writing application : mkvmerge v13.0.0 ('The Juggler') 64bit
    Writing library : libebml v1.3.4 + libmatroska v1.4.5

    Video
    ID : 1
    Format : AVC
    Format/Info : Advanced Video Codec
    Format profile : High@L4.1
    Format settings, CABAC : Yes
    Format settings, RefFrames : 16 frames
    Codec ID : V_MPEG4/ISO/AVC
    Duration : 2 h 15 min
    Bit rate : 1 094 kb/s
    Width : 720 pixels
    Height : 302 pixels
    Display aspect ratio : 2.40:1
    Frame rate mode : Constant
    Frame rate : 23.976 (24000/1001) FPS
    Color space : YUV
    Chroma subsampling : 4:2:0
    Bit depth : 8 bits
    Scan type : Progressive
    Bits/(Pixel*Frame) : 0.210
    Stream size : 1.04 GiB (63%)
    Writing library : x264 core 152 r2851kMod ba24899
    Encoding settings : cabac=1 / ref=16 / deblock=1:-3:-3 / analyse=0x3:0x133 / me=umh / subme=10 / psy=1 / fade_compensate=0.00 / psy_rd=1.00:0.00 / mixed_ref=1 / me_range=24 / chroma_me=1 / trellis=2 / 8x8dct=1 / cqm=0 / deadzone=21,11 / fast_pskip=0 / chroma_qp_offset=-2 / threads=9 / lookahead_threads=1 / sliced_threads=0 / nr=0 / decimate=0 / interlaced=0 / bluray_compat=0 / constrained_intra=0 / bframes=6 / b_pyramid=2 / b_adapt=2 / b_bias=0 / direct=3 / weightb=1 / open_gop=0 / weightp=2 / keyint=250 / keyint_min=23 / scenecut=40 / intra_refresh=0 / rc=crf / mbtree=0 / crf=18.0000 / qcomp=0.70 / qpmin=0 / qpmax=69 / qpstep=4 / ip_ratio=1.30 / pb_ratio=1.20 / aq=2:0.90
    Language : English
    Default : Yes
    Forced : No

    Audio
    ID : 2
    Format : AC-3
    Format/Info : Audio Coding 3
    Format settings, Endianness : Big
    Codec ID : A_AC3
    Duration : 2 h 15 min
    Bit rate mode : Constant
    Bit rate : 640 kb/s
    Channel(s) : 6 channels
    Channel positions : Front: L C R, Side: L R, LFE
    Sampling rate : 48.0 kHz
    Frame rate : 31.250 FPS (1536 SPF)
    Bit depth : 16 bits
    Compression mode : Lossy
    Stream size : 622 MiB (37%)
    Language : Hungarian
    Service kind : Complete Main
    Default : Yes
    Forced : No

    Text
    ID : 3
    Format : UTF-8
    Codec ID : S_TEXT/UTF8
    Codec ID/Info : UTF-8 Plain Text
    Duration : 2 h 6 min
    Bit rate : 0 b/s
    Count of elements : 11
    Stream size : 191 Bytes (0%)
    Language : Hungarian
    Default : Yes
    Forced : Yes

    Menu
    00:00:00.000 : en:King cobra & giant sea monkey
    00:09:56.179 : en:Golden morons
    00:15:10.118 : en:Space chase
    00:22:14.083 : en:Not from missouri
    00:32:33.702 : eneepest, darkest, secrets
    00:36:52.127 : en:Berhert ambush
    00:42:29.172 : en:Finding meaning
    00:48:03.464 : en:Taserface
    00:53:18.904 : en:Celestial cath
    00:58:45.939 : en:Let's agree to never discuss this
    01:05:52.240 : en:Eclector escape
    01:11:12.435 : en:Sibling rivalry
    01:18:43.594 : en:Eternity
    01:23:55.322 : en:Two of a kind
    01:30:24.753 : en:Inflated ego
    01:39:36.179 : en:What a day
    01:47:06.211 : en:From the heart
    01:54:21.605 : en:A father's sacrifice
    01:58:53.710 : en:The colors of ogord
    02:07:13.459 : en:End credits


    **Rejtett tartalom: Klikkelj a Köszönöm gombra, ha szeretnéd látni**



  15. Eddig 3 Felhasználó mondott köszönetet cobretti felhaszlálónak ezért a témáért:

    johndoe2004 (2018-09-10),ragadozo7 (2018-09-16),zoli01 (2018-09-09)

  16. #18
    Status
    Offline
    cobretti's Avatar
    Linkellenőr
    Csatlakozott
    13-09-30
    Hozzászólások
    5.776
    Halott Témáim
    Nem, Újraélesztem
    Köszönöm
    179
    180.309 Kapott Köszi 5.657 Témáért

    17. Thor 3: Ragnarok 2017



    Történet:
    Beköszönt a Ragnarok vagyis a Viking Világvége. Thornak be kell utaznia a kozmoszt ,hogy megtalálja azt a fegyvert amivel meg tudja akadájozni a Világvégét. Közben Asgardban Loki átvette a vezetést Odin képébe bújva, ez is nehezíti majd Thor dolgát. A filmbe feltünik majd Bruce Banner zöld énje is ,viszontláthatjuk Heimdalt, kiderül majd mi történt Odinnal. És egy új rettenetes hatalmú női fögonosz Hela a halál istennője bonyolítja majd a történéseket...


    Szereplők:
    Jaimie Alexander, Chris Hemsworth, Idris Elba, Tom Hiddleston, Anthony Hopkins, Tessa Thompson, Cate Blanchett, Sam Neill, Karl Urban, Mark Ruffalo


    Format : Matroska
    Format version : Version 4 / Version 2
    File size : 1.33 GiB
    Duration : 2 h 10 min
    Overall bit rate : 1 462 kb/s
    Encoded date : UTC 2018-03-03 10:46:15
    Writing application : mkvmerge v20.0.0 ('I Am The Sun') 64-bit
    Writing library : libebml v1.3.5 + libmatroska v1.4.8

    Video
    ID : 1
    Format : AVC
    Format/Info : Advanced Video Codec
    Format profile : High@L4.1
    Format settings, CABAC : Yes
    Format settings, RefFrames : 16 frames
    Codec ID : V_MPEG4/ISO/AVC
    Duration : 2 h 10 min
    Bit rate : 1 077 kb/s
    Width : 720 pixels
    Height : 302 pixels
    Display aspect ratio : 2.40:1
    Frame rate mode : Constant
    Frame rate : 23.976 (24000/1001) FPS
    Color space : YUV
    Chroma subsampling : 4:2:0
    Bit depth : 8 bits
    Scan type : Progressive
    Bits/(Pixel*Frame) : 0.206
    Stream size : 1 005 MiB (74%)
    Writing library : x264 core 152 r2851kMod ba24899
    Encoding settings : cabac=1 / ref=16 / deblock=1:-3:-3 / analyse=0x3:0x133 / me=umh / subme=10 / psy=1 / fade_compensate=0.00 / psy_rd=1.00:0.00 / mixed_ref=1 / me_range=24 / chroma_me=1 / trellis=2 / 8x8dct=1 / cqm=0 / deadzone=21,11 / fast_pskip=0 / chroma_qp_offset=-2 / threads=9 / lookahead_threads=1 / sliced_threads=0 / nr=0 / decimate=0 / interlaced=0 / bluray_compat=0 / constrained_intra=0 / bframes=7 / b_pyramid=2 / b_adapt=2 / b_bias=0 / direct=3 / weightb=1 / open_gop=0 / weightp=2 / keyint=250 / keyint_min=23 / scenecut=40 / intra_refresh=0 / rc=crf / mbtree=0 / crf=18.0000 / qcomp=0.65 / qpmin=0 / qpmax=69 / qpstep=4 / ip_ratio=1.30 / pb_ratio=1.20 / aq=3:0.85
    Language : English
    Default : Yes
    Forced : No

    Audio
    ID : 2
    Format : AC-3
    Format/Info : Audio Coding 3
    Format settings, Endianness : Big
    Codec ID : A_AC3
    Duration : 2 h 10 min
    Bit rate mode : Constant
    Bit rate : 384 kb/s
    Channel(s) : 6 channels
    Channel positions : Front: L C R, Side: L R, LFE
    Sampling rate : 48.0 kHz
    Frame rate : 31.250 FPS (1536 SPF)
    Bit depth : 16 bits
    Compression mode : Lossy
    Stream size : 358 MiB (26%)
    Language : Hungarian
    Service kind : Complete Main
    Default : Yes
    Forced : No

    Text #1
    ID : 3
    Format : UTF-8
    Codec ID : S_TEXT/UTF8
    Codec ID/Info : UTF-8 Plain Text
    Duration : 2 h 1 min
    Bit rate : 0 b/s
    Count of elements : 2
    Stream size : 78.0 Bytes (0%)
    Language : Hungarian
    Default : Yes
    Forced : Yes

    Text #2
    ID : 4
    Format : UTF-8
    Codec ID : S_TEXT/UTF8
    Codec ID/Info : UTF-8 Plain Text
    Duration : 2 h 9 min
    Bit rate : 44 b/s
    Count of elements : 1568
    Stream size : 42.5 KiB (0%)
    Language : Hungarian
    Default : No
    Forced : No

    Menu
    00:00:00.000 : en:00:00:00.000
    00:06:20.672 : en:00:06:20.672
    00:14:11.642 : en:00:14:11.642
    00:22:12.873 : en:00:22:12.873
    00:26:43.060 : en:00:26:43.060
    00:31:29.721 : en:00:31:29.721
    00:35:03.935 : en:00:35:03.935
    00:42:49.734 : en:00:42:49.734
    00:48:31.534 : en:00:48:31.534
    00:59:38.784 : en:00:59:38.784
    01:07:57.907 : en:01:07:57.907
    01:17:30.604 : en:01:17:30.604
    01:27:25.323 : en:01:27:25.323
    01:36:08.721 : en:01:36:08.721
    01:42:35.733 : en:01:42:35.733
    01:49:19.887 : en:01:49:19.887
    01:54:57.599 : en:01:54:57.599
    02:00:37.522 : en:02:00:37.522


    **Rejtett tartalom: Klikkelj a Köszönöm gombra, ha szeretnéd látni**



  17. Eddig 6 Felhasználó mondott köszönetet cobretti felhaszlálónak ezért a témáért:

    Corleone84 (2018-09-06),feco25 (2018-09-01),johndoe2004 (2018-09-10),liberador (2018-09-21),ragadozo7 (2018-09-16),zoli01 (2018-09-09)

  18. #19
    Status
    Offline
    cobretti's Avatar
    Linkellenőr
    Csatlakozott
    13-09-30
    Hozzászólások
    5.776
    Halott Témáim
    Nem, Újraélesztem
    Köszönöm
    179
    180.309 Kapott Köszi 5.657 Témáért

    18. Fekete Párduc [Black Panther] 2018



    Történet:
    Wakanda királyának halála után fia, T'Challa visszatér az elszigetelt, azonban technológiailag igen fejlett afrikai hazájába, hogy elfoglalja méltó helyét a trónon. Azonban amikor feltűnik egy régi ellenfél, nem csupán Wakanda, de az egész bolygó sorsa veszélybe kerül...


    Szereplők:
    Andy Serkis, Chadwick Boseman, Michael B. Jordan, Lupita Nyong'o, Forest Whitaker, Angela Bassett, Martin Freeman


    Format : Matroska
    Format version : Version 4 / Version 2
    File size : 1.52 GiB
    Duration : 2 h 14 min
    Overall bit rate : 1 614 kb/s
    Movie name : No1
    Encoded date : UTC 2018-06-12 14:30:59
    Writing application : mkvmerge v7.6.0 ('Garden of Dreams') 64bit built on Feb 8 2015 13:04:34
    Writing library : libebml v1.3.1 + libmatroska v1.4.2

    Video
    ID : 1
    Format : AVC
    Format/Info : Advanced Video Codec
    Format profile : High@L4.1
    Format settings, CABAC : Yes
    Format settings, RefFrames : 16 frames
    Codec ID : V_MPEG4/ISO/AVC
    Duration : 2 h 14 min
    Bit rate : 1 228 kb/s
    Width : 720 pixels
    Height : 302 pixels
    Display aspect ratio : 2.40:1
    Frame rate mode : Constant
    Frame rate : 23.976 (24000/1001) FPS
    Color space : YUV
    Chroma subsampling : 4:2:0
    Bit depth : 8 bits
    Scan type : Progressive
    Bits/(Pixel*Frame) : 0.236
    Stream size : 1.15 GiB (76%)
    Writing library : x264 core 152 r2851kMod ba24899
    Encoding settings : cabac=1 / ref=16 / deblock=1:-3:-3 / analyse=0x3:0x133 / me=umh / subme=10 / psy=1 / fade_compensate=0.00 / psy_rd=1.02:0.00 / mixed_ref=1 / me_range=32 / chroma_me=1 / trellis=2 / 8x8dct=1 / cqm=0 / deadzone=21,11 / fast_pskip=0 / chroma_qp_offset=-2 / threads=9 / lookahead_threads=1 / sliced_threads=0 / nr=0 / decimate=0 / interlaced=0 / bluray_compat=0 / constrained_intra=0 / bframes=8 / b_pyramid=2 / b_adapt=2 / b_bias=0 / direct=3 / weightb=1 / open_gop=0 / weightp=2 / keyint=250 / keyint_min=23 / scenecut=40 / intra_refresh=0 / rc_lookahead=60 / rc=crf / mbtree=0 / crf=17.0000 / qcomp=0.65 / qpmin=0 / qpmax=69 / qpstep=4 / vbv_maxrate=50000 / vbv_bufsize=62500 / crf_max=0.0 / nal_hrd=none / filler=0 / ip_ratio=1.30 / pb_ratio=1.20 / aq=1:0.80
    Language : English
    Default : Yes
    Forced : No

    Audio
    ID : 2
    Format : AC-3
    Format/Info : Audio Coding 3
    Format settings, Endianness : Big
    Codec ID : A_AC3
    Duration : 2 h 14 min
    Bit rate mode : Constant
    Bit rate : 384 kb/s
    Channel(s) : 6 channels
    Channel positions : Front: L C R, Side: L R, LFE
    Sampling rate : 48.0 kHz
    Frame rate : 31.250 FPS (1536 SPF)
    Bit depth : 16 bits
    Compression mode : Lossy
    Stream size : 370 MiB (24%)
    Language : Hungarian
    Service kind : Complete Main
    Default : Yes
    Forced : No

    Text #1
    ID : 3
    Format : UTF-8
    Codec ID : S_TEXT/UTF8
    Codec ID/Info : UTF-8 Plain Text
    Duration : 2 h 12 min
    Bit rate : 1 b/s
    Count of elements : 82
    Stream size : 1.49 KiB (0%)
    Title : Forced
    Language : Hungarian
    Default : Yes
    Forced : Yes

    Text #2
    ID : 4
    Format : UTF-8
    Codec ID : S_TEXT/UTF8
    Codec ID/Info : UTF-8 Plain Text
    Duration : 2 h 14 min
    Bit rate : 39 b/s
    Count of elements : 1454
    Stream size : 38.6 KiB (0%)
    Language : Hungarian
    Default : No
    Forced : No


    **Rejtett tartalom: Klikkelj a Köszönöm gombra, ha szeretnéd látni**



  19. Eddig 5 Felhasználó mondott köszönetet cobretti felhaszlálónak ezért a témáért:

    adori (2018-09-05),detterw9 (2018-09-12),johndoe2004 (2018-09-10),ragadozo7 (2018-09-16),Tyutyi2013 (Ma)

  20. #20
    Status
    Offline
    cobretti's Avatar
    Linkellenőr
    Csatlakozott
    13-09-30
    Hozzászólások
    5.776
    Halott Témáim
    Nem, Újraélesztem
    Köszönöm
    179
    180.309 Kapott Köszi 5.657 Témáért

    19. Bosszúállók 3: Végtelen háború [Avengers 3: Infinity War] 2018



    Történet:
    A Bosszúállóknak és a Földnek egy minden korábbinál nagyobb fenyegetéssel kell szembenézniük, egy új veszedelemmel, mely a kozmikus árnyékból emelkedik ki, Thanosszal, akinek eltökélt célja, hogy megszerezze mind a hat végtelen követ, és ezzel korlátlan hatalomra tegyen szert. A Bosszúállók minden eddigi harca ehhez a pillanathoz vezetett – a Föld, és a létezés sorsa soha nem volt még annyira bizonytalan, mint most...


    Szereplők:
    Josh Brolin, Cobie Smulders, Scarlett Johansson, Benedict Cumberbatch, Chris Pratt, Brie Larson, Elizabeth Olsen, Vin Diesel, Zoe Saldana, Karen Gillan, Chris Hemsworth, Chris Evans, Robert Downey Jr., Bradley Cooper, Tom Holland, Sebastian Stan, Mark Ruffalo


    Format : Matroska
    Format version : Version 4 / Version 2
    File size : 1.47 GiB
    Duration : 2 h 29 min
    Overall bit rate : 1 410 kb/s
    Encoded date : UTC 2018-08-26 00:37:46
    Writing application : mkvmerge v25.0.0 ('Prog Noir') 64-bit
    Writing library : libebml v1.3.6 + libmatroska v1.4.9

    Video
    ID : 1
    Format : AVC
    Format/Info : Advanced Video Codec
    Format profile : High@L4.1
    Format settings, CABAC : Yes
    Format settings, RefFrames : 16 frames
    Codec ID : V_MPEG4/ISO/AVC
    Duration : 2 h 29 min
    Bit rate : 1 185 kb/s
    Width : 720 pixels
    Height : 302 pixels
    Display aspect ratio : 2.40:1
    Frame rate mode : Constant
    Frame rate : 23.976 (24000/1001) FPS
    Color space : YUV
    Chroma subsampling : 4:2:0
    Bit depth : 8 bits
    Scan type : Progressive
    Bits/(Pixel*Frame) : 0.227
    Stream size : 1.24 GiB (84%)
    Writing library : x264 core 152 r2851kMod ba24899
    Encoding settings : cabac=1 / ref=16 / deblock=1:-3:-3 / analyse=0x3:0x133 / me=umh / subme=10 / psy=1 / fade_compensate=0.00 / psy_rd=1.05:0.00 / mixed_ref=1 / me_range=32 / chroma_me=1 / trellis=2 / 8x8dct=1 / cqm=0 / deadzone=21,11 / fast_pskip=0 / chroma_qp_offset=-2 / threads=9 / lookahead_threads=1 / sliced_threads=0 / nr=0 / decimate=0 / interlaced=0 / bluray_compat=0 / constrained_intra=0 / bframes=8 / b_pyramid=2 / b_adapt=2 / b_bias=0 / direct=3 / weightb=1 / open_gop=0 / weightp=2 / keyint=250 / keyint_min=23 / scenecut=40 / intra_refresh=0 / rc=crf / mbtree=0 / crf=17.0000 / qcomp=0.60 / qpmin=0 / qpmax=69 / qpstep=4 / ip_ratio=1.30 / pb_ratio=1.20 / aq=2:0.80
    Language : English
    Default : Yes
    Forced : No

    Audio
    ID : 2
    Format : AC-3
    Format/Info : Audio Coding 3
    Format settings, Endianness : Big
    Codec ID : A_AC3
    Duration : 2 h 29 min
    Bit rate mode : Constant
    Bit rate : 224 kb/s
    Channel(s) : 2 channels
    Channel positions : Front: L R
    Sampling rate : 48.0 kHz
    Frame rate : 31.250 FPS (1536 SPF)
    Bit depth : 16 bits
    Compression mode : Lossy
    Stream size : 239 MiB (16%)
    Language : Hungarian
    Service kind : Complete Main
    Default : Yes
    Forced : No

    Text
    ID : 3
    Format : UTF-8
    Codec ID : S_TEXT/UTF8
    Codec ID/Info : UTF-8 Plain Text
    Duration : 2 h 17 min
    Bit rate : 0 b/s
    Count of elements : 9
    Stream size : 124 Bytes (0%)
    Language : Hungarian
    Default : Yes
    Forced : Yes

    Menu
    00:00:00.000 : en:00:00:00.000
    00:11:28.730 : en:00:11:28.730
    00:18:13.884 : en:00:18:13.884
    00:27:23.809 : en:00:27:23.809
    00:35:48.813 : en:00:35:48.813
    00:42:23.541 : en:00:42:23.541
    00:54:12.875 : en:00:54:12.875
    00:59:36.740 : en:00:59:36.740
    01:05:07.153 : en:01:05:07.153
    01:10:53.666 : en:01:10:53.666
    01:17:06.956 : en:01:17:06.956
    01:24:14.758 : en:01:24:14.758
    01:31:08.004 : en:01:31:08.004
    01:42:00.406 : en:01:42:00.406
    01:45:57.810 : en:01:45:57.810
    01:53:04.069 : en:01:53:04.069
    01:58:52.917 : en:01:58:52.917
    02:03:58.181 : en:02:03:58.181
    02:11:13.282 : en:02:11:13.282
    02:17:31.285 : en:02:17:31.285


    **Rejtett tartalom: Klikkelj a Köszönöm gombra, ha szeretnéd látni**



  21. Eddig 12 Felhasználó mondott köszönetet cobretti felhaszlálónak ezért a témáért:

    adori (2018-09-05),huszi74 (2018-09-08),johndoe2004 (2018-09-10),kuka66 (2018-09-09),kyger (2018-09-22),lizzilara (2018-09-08),nagyu (2018-09-09),ragadozo7 (2018-09-16),solc (2018-09-16),szmtk (2018-09-10),zed_58 (2018-09-04),zoli01 (2018-09-09)

 

 
Page 2 of 2 FirstFirst 12

A Téma cimkéi

Jogosultságok

  • Nem nyithatsz Új Témát
  • Nem válaszolhatsz a Témában
  • Nem csatolhatsz állományt
  • Nem szerkesztheted a Hozzászólásaid
  •