Page 3 of 3 FirstFirst 123
Results 21 to 23 of 23
  1. #1
    Status
    Offline
    cobretti's Avatar
    Linkellenőr
    Csatlakozott
    13-09-30
    Hozzászólások
    7.894
    Halott Témáim
    Nem, Újraélesztem
    Köszönöm
    216
    271.020 Kapott Köszi 7.739 Témáért

    Marvel MoziUniverzum




    A letöltés linkje a gombra kattintással érhető el az összes filmnél.


    Hasonló témák:
    Last edited by cobretti; 2019-09-09 at 15:31.

  2. Eddig 12 Felhasználó mondott köszönetet cobretti felhaszlálónak ezért a témáért:

    Andrey60 (2019-09-19),Antibal (2019-09-12),ápolónő (2019-09-19),Bobek76 (2019-09-19),EngiSebi (2019-09-09),Karakk79 (2019-07-28),minfo (2019-09-13),mitnick (2019-04-08),papamama (2019-09-12),pocimix (2019-09-10),potter70 (2019-09-10),öregapó (2019-09-09)

  3. #21
    Status
    Offline
    cobretti's Avatar
    Linkellenőr
    Csatlakozott
    13-09-30
    Hozzászólások
    7.894
    Halott Témáim
    Nem, Újraélesztem
    Köszönöm
    216
    271.020 Kapott Köszi 7.739 Témáért

    20. A Hangya és a Darázs [Ant-Man and the Wasp] 2018



    Történet:
    Az Amerika Kapitány: Polgárháború eseményei után Scott Langnek (Paul Rudd) szembe kell néznie döntésének következményeivel, szuperhősként és apaként egyaránt. Miközben próbál egyensúlyt teremteni emberi élete és a Hangyaként rá háruló felelősségei között, Hope van Dyne (Evangeline Lilly) és Dr. Hank Pym (Michael Douglas) egy sürgős új küldetéssel járul elé. Scottnak még egyszer magára kell húznia a szerkót és együtt kell működnie a Darázzsal, mialatt közös erővel próbálják feltárni a múlt titkait..


    Szereplők:
    Michael Douglas, Michelle Pfeiffer, Laurence Fishburne, Evangeline Lilly, Paul Rudd, Hannah John-Kamen, Michael Peńa


    Format : Matroska
    Format version : Version 4 / Version 2
    File size : 1.36 GiB
    Duration : 1h 58mn
    Overall bit rate : 1 649 Kbps
    Encoded date : UTC 2018-11-07 20:15:33
    Writing application : mkvmerge v6.1.0 ('Old Devil') built on Mar 4 2013 09:10:42
    Writing library : libebml v1.3.0 + libmatroska v1.4.0

    Video
    ID : 1
    Format : AVC
    Format/Info : Advanced Video Codec
    Format profile : High@L4.1
    Format settings, CABAC : Yes
    Format settings, ReFrames : 16 frames
    Codec ID : V_MPEG4/ISO/AVC
    Duration : 1h 58mn
    Bit rate : 1 233 Kbps
    Width : 720 pixels
    Height : 302 pixels
    Display aspect ratio : 2.40:1
    Frame rate mode : Constant
    Frame rate : 23.976 (24000/1001) fps
    Color space : YUV
    Chroma subsampling : 4:2:0
    Bit depth : 8 bits
    Scan type : Progressive
    Bits/(Pixel*Frame) : 0.236
    Stream size : 1.02 GiB (75%)
    Writing library : x264 core 152 r2851kMod ba24899
    Encoding settings : cabac=1 / ref=16 / deblock=1:-3:-3 / analyse=0x3:0x133 / me=umh / subme=10 / psy=1 / fade_compensate=0.00 / psy_rd=0.98:0.00 / mixed_ref=1 / me_range=32 / chroma_me=1 / trellis=2 / 8x8dct=1 / cqm=0 / deadzone=21,11 / fast_pskip=0 / chroma_qp_offset=-2 / threads=9 / lookahead_threads=1 / sliced_threads=0 / nr=0 / decimate=0 / interlaced=0 / bluray_compat=0 / constrained_intra=0 / bframes=8 / b_pyramid=2 / b_adapt=2 / b_bias=0 / direct=3 / weightb=1 / open_gop=0 / weightp=2 / keyint=250 / keyint_min=23 / scenecut=40 / intra_refresh=0 / rc_lookahead=60 / rc=crf / mbtree=0 / crf=15.0000 / qcomp=0.65 / qpmin=0 / qpmax=69 / qpstep=4 / vbv_maxrate=50000 / vbv_bufsize=62500 / crf_max=0.0 / nal_hrd=none / filler=0 / ip_ratio=1.30 / pb_ratio=1.20 / aq=1:0.80 / zones=1208,1215,crf=12/3135,3205,crf=12/5355,5366,crf=12/5892,5895,crf=12/6570,6573,crf=12/7015,7025,crf=12/17017,17469,crf=12/65647,65832,crf=12/121916,121974,crf=12/159715,169906,crf=19
    Language : English
    Default : Yes
    Forced : No

    Audio
    ID : 2
    Format : AC-3
    Format/Info : Audio Coding 3
    Mode extension : CM (complete main)
    Format settings, Endianness : Big
    Codec ID : A_AC3
    Duration : 1h 58mn
    Bit rate mode : Constant
    Bit rate : 384 Kbps
    Channel(s) : 6 channels
    Channel positions : Front: L C R, Side: L R, LFE
    Sampling rate : 48.0 KHz
    Frame rate : 31.250 fps (1536 spf)
    Compression mode : Lossy
    Stream size : 324 MiB (23%)
    Language : Hungarian
    Default : Yes
    Forced : No

    Text #1
    ID : 3
    Format : UTF-8
    Codec ID : S_TEXT/UTF8
    Codec ID/Info : UTF-8 Plain Text
    Title : Forced
    Language : Hungarian
    Default : Yes
    Forced : Yes

    Text #2
    ID : 4
    Format : UTF-8
    Codec ID : S_TEXT/UTF8
    Codec ID/Info : UTF-8 Plain Text
    Language : Hungarian
    Default : No
    Forced : No


    **Rejtett tartalom: Klikkelj a Köszönöm gombra, ha szeretnéd látni**


    Last edited by cobretti; 2019-09-09 at 14:38.

  4. Eddig 67 Felhasználó mondott köszönetet cobretti felhaszlálónak ezért a témáért:

    3m4il (2019-03-24),Alexejew (2018-11-22),Amazon77 (2019-04-17),andi0317 (2018-11-24),Antibal (2019-09-12),begeza (2018-12-24),ceanka (2019-05-12),charmed (2018-11-22),Chrash (2018-12-27),DANTE69 (2019-03-08),gara1 (2019-01-12),gythomas (2019-01-19),Gyuri4074 (2018-12-23),hawer74 (2019-03-08),hjózsef (2019-02-03),iniddragdancer (2019-08-31),istvan72spider (2019-01-12),istvanson1 (2019-01-03),Jozsef76 (2019-04-30),k.janika (2018-11-20),karlgros (2018-11-19),kimika (2019-09-14),kuka66 (2019-08-08),kzsjoe (2019-09-14),lacuska5 (2019-04-19),lajsz68 (2018-12-27),lilneek (2018-12-29),ljudit (2018-11-22),luigi (2019-04-05),manuta74 (2019-04-27),medi (2019-05-25),mikize (2018-11-18),miklos1969 (2019-04-22),mirrmur (2019-04-30),nintaus (2019-09-16),ooops (2019-06-04),pagliuca0 (2018-11-19),percsi8 (2019-05-28),peter447 (2019-09-19),petrolsan (2019-03-15),pocimix (2019-09-10),ragadozo7 (2019-07-21),rebesz (2019-07-08),regenbogen1980 (2019-07-18),Ricsireg (2018-12-30),Santana48 (2018-11-17),sasag6789 (2019-08-08),Sentinel (2018-11-23),Serpentin (2019-09-13),sleepy933 (2019-09-09),szepi38 (2018-12-02),szörpike (2019-03-24),talbert (2019-08-26),tass500 (2019-06-02),tomas (2018-12-16),tozegafonya65 (2019-04-22),tökfej77 (2018-12-16),Vegamen (2019-01-02),Wendriner Aladár (2018-11-19),yocc1331 (2019-04-29),zaff (2018-12-07),zed_58 (2019-08-16),zoli.v (2018-12-07),Zsenn (2019-07-18),zsoltibobo (2019-01-02),zsomborzsolt (2019-07-14),Zyz001 (2018-11-22)

  5. #22
    Status
    Offline
    cobretti's Avatar
    Linkellenőr
    Csatlakozott
    13-09-30
    Hozzászólások
    7.894
    Halott Témáim
    Nem, Újraélesztem
    Köszönöm
    216
    271.020 Kapott Köszi 7.739 Témáért

    21. Marvel kapitány [Captain Marvel] 2019



    Történet:
    A 90-es években, Carol Danvers-ből lesz az univerzum egyik leghatalmasabb hőse, miközben a Föld két háborúzó idegen faj csataterévé válik...


    Szereplők:
    Samuel L. Jackson, Jude Law, Annette Bening, Brie Larson, Lee Pace, Clark Gregg, Djimon Hounsou, Ben Mendelsohn


    Format : Matroska
    Format version : Version 4 / Version 2
    File size : 1.20 GiB
    Duration : 2h 3mn
    Overall bit rate : 1 392 Kbps
    Encoded date : UTC 2019-07-08 21:39:43
    Writing application : mkvmerge v35.0.0 ('All The Love In The World') 64-bit
    Writing library : libebml v1.3.9 + libmatroska v1.5.2

    Video
    ID : 1
    Format : AVC
    Format/Info : Advanced Video Codec
    Format profile : High@L4.1
    Format settings, CABAC : Yes
    Format settings, ReFrames : 16 frames
    Codec ID : V_MPEG4/ISO/AVC
    Duration : 2h 3mn
    Bit rate : 1 166 Kbps
    Width : 720 pixels
    Height : 302 pixels
    Display aspect ratio : 2.40:1
    Frame rate mode : Constant
    Frame rate : 23.976 (24000/1001) fps
    Color space : YUV
    Chroma subsampling : 4:2:0
    Bit depth : 8 bits
    Scan type : Progressive
    Bits/(Pixel*Frame) : 0.224
    Stream size : 1.01 GiB (84%)
    Writing library : x264 core 152 r2851kMod ba24899
    Encoding settings : cabac=1 / ref=16 / deblock=1:-3:-3 / analyse=0x3:0x133 / me=umh / subme=10 / psy=1 / fade_compensate=0.00 / psy_rd=1.05:0.00 / mixed_ref=1 / me_range=32 / chroma_me=1 / trellis=2 / 8x8dct=1 / cqm=0 / deadzone=21,11 / fast_pskip=0 / chroma_qp_offset=-2 / threads=9 / lookahead_threads=1 / sliced_threads=0 / nr=0 / decimate=0 / interlaced=0 / bluray_compat=0 / constrained_intra=0 / bframes=8 / b_pyramid=2 / b_adapt=2 / b_bias=0 / direct=3 / weightb=1 / open_gop=0 / weightp=2 / keyint=250 / keyint_min=23 / scenecut=40 / intra_refresh=0 / rc=crf / mbtree=0 / crf=15.8000 / qcomp=0.60 / qpmin=0 / qpmax=69 / qpstep=4 / ip_ratio=1.30 / pb_ratio=1.20 / aq=3:0.75 / zones=166850,177957,crf=18
    Language : English
    Default : Yes
    Forced : No

    Audio
    ID : 2
    Format : AC-3
    Format/Info : Audio Coding 3
    Mode extension : CM (complete main)
    Format settings, Endianness : Big
    Codec ID : A_AC3
    Duration : 2h 3mn
    Bit rate mode : Constant
    Bit rate : 224 Kbps
    Channel(s) : 2 channels
    Channel positions : Front: L R
    Sampling rate : 48.0 KHz
    Frame rate : 31.250 fps (1536 spf)
    Compression mode : Lossy
    Stream size : 198 MiB (16%)
    Language : Hungarian
    Default : Yes
    Forced : No

    Text #1
    ID : 3
    Format : UTF-8
    Codec ID : S_TEXT/UTF8
    Codec ID/Info : UTF-8 Plain Text
    Duration : 1h 55mn
    Bit rate : 0 bps
    Count of elements : 16
    Stream size : 521 Bytes (0%)
    Language : Hungarian
    Default : Yes
    Forced : Yes

    Text #2
    ID : 4
    Format : UTF-8
    Codec ID : S_TEXT/UTF8
    Codec ID/Info : UTF-8 Plain Text
    Duration : 1h 55mn
    Bit rate : 45 bps
    Count of elements : 1149
    Stream size : 38.9 KiB (0%)
    Language : Hungarian
    Default : No
    Forced : No

    Menu
    00:00:00.000 : :Chapter 01
    00:06:52.120 : :Chapter 02
    00:14:07.889 : :Chapter 03
    00:23:18.272 : :Chapter 04
    00:29:38.026 : :Chapter 05
    00:35:07.772 : :Chapter 06
    00:44:08.437 : :Chapter 07
    00:50:43.499 : :Chapter 08
    00:56:18.625 : :Chapter 09
    01:03:02.821 : :Chapter 10
    01:11:17.398 : :Chapter 11
    01:17:49.164 : :Chapter 12
    01:27:03.051 : :Chapter 13
    01:33:22.430 : :Chapter 14
    01:40:51.796 : :Chapter 15
    01:46:25.087 : :Chapter 16
    01:52:49.888 : :Chapter 17


    **Rejtett tartalom: Klikkelj a Köszönöm gombra, ha szeretnéd látni**



  6. Eddig 20 Felhasználó mondott köszönetet cobretti felhaszlálónak ezért a témáért:

    Alexejew (2019-07-20),Antibal (2019-09-12),Balage1973 (2019-08-10),charmed (2019-07-18),csokosasszony (2019-07-20),iniddragdancer (2019-08-05),Jaxxhardy (2019-07-29),kimika (2019-09-14),kzsjoe (2019-09-14),mosolygos (2019-07-16),nintaus (2019-09-16),peter447 (2019-09-19),pocimix (2019-09-10),ragadozo7 (2019-07-21),Samanoskue (2019-09-09),sasag6789 (2019-08-08),sleepy933 (2019-09-09),tozegafonya65 (2019-07-21),wazzuphun (2019-09-01),zed_58 (2019-08-15)

  7. #23
    Status
    Offline
    cobretti's Avatar
    Linkellenőr
    Csatlakozott
    13-09-30
    Hozzászólások
    7.894
    Halott Témáim
    Nem, Újraélesztem
    Köszönöm
    216
    271.020 Kapott Köszi 7.739 Témáért

    22. Bosszúállók 4: Végjáték [Avengers 4: Endgame]



    Történet:
    A Végtelen háború pusztító eseményei után az univerzum romokban hever az őrült Titánnak, Thanosnak köszönhetően. A megmaradt szövetségeseikkel a Bosszúállóknak mindent meg kell tenniük azért, hogy Thanos tetteit visszafordítsák, és helyreállítsák az univerzum rendjét – bármilyen következményekkel is jár ez...


    Szereplők:
    Robert Downey Jr., Chris Hemsworth, Mark Ruffalo, Chris Evans, Scarlett Johansson, Benedict Cumberbatch, Don Cheadle, Tom Holland, Chadwick Boseman, Paul Bettany, Elizabeth Olsen, Anthony Mackie, Sebastian Stan, Letitia Wright, Dave Bautista, Zoë Saldana, Josh Brolin, Chris Pratt, Jeremy Renner, Evangeline Lilly, Jon Favreau, Paul Rudd, Brie Larson


    Format : Matroska
    Format version : Version 2
    File size : 2.00 GiB
    Duration : 3h 1mn
    Overall bit rate : 1 579 Kbps
    Encoded date : UTC 2019-09-04 12:05:47
    Writing application : mkvmerge v7.8.0 ('River Man') 32bit built on Apr 3 2015 12:11:22
    Writing library : libebml v1.3.1 + libmatroska v1.4.2

    Video
    ID : 1
    Format : AVC
    Format/Info : Advanced Video Codec
    Format profile : High@L4.1
    Format settings, CABAC : Yes
    Format settings, ReFrames : 16 frames
    Codec ID : V_MPEG4/ISO/AVC
    Duration : 3h 1mn
    Bit rate : 1 200 Kbps
    Width : 720 pixels
    Height : 302 pixels
    Display aspect ratio : 2.40:1
    Frame rate mode : Constant
    Frame rate : 23.976 (24000/1001) fps
    Color space : YUV
    Chroma subsampling : 4:2:0
    Bit depth : 8 bits
    Scan type : Progressive
    Bits/(Pixel*Frame) : 0.230
    Stream size : 1.47 GiB (74%)
    Writing library : x264 core 157 r2935 545de2f
    Encoding settings : cabac=1 / ref=16 / deblock=1:-3:-3 / analyse=0x3:0x133 / me=umh / subme=10 / psy=1 / psy_rd=1.05:0.00 / mixed_ref=1 / me_range=32 / chroma_me=1 / trellis=2 / 8x8dct=1 / cqm=0 / deadzone=21,11 / fast_pskip=0 / chroma_qp_offset=-2 / threads=9 / lookahead_threads=1 / sliced_threads=0 / nr=0 / decimate=0 / interlaced=0 / bluray_compat=0 / constrained_intra=0 / bframes=9 / b_pyramid=2 / b_adapt=2 / b_bias=0 / direct=3 / weightb=1 / open_gop=0 / weightp=2 / keyint=250 / keyint_min=23 / scenecut=40 / intra_refresh=0 / rc_lookahead=0 / rc=2pass / mbtree=0 / bitrate=1200 / ratetol=1.0 / qcomp=0.65 / qpmin=0 / qpmax=69 / qpstep=4 / cplxblur=20.0 / qblur=0.5 / vbv_maxrate=50000 / vbv_bufsize=62500 / nal_hrd=none / filler=0 / ip_ratio=1.30 / pb_ratio=1.20 / aq=3:0.85 / zones=1,31943,b=1.3/37746,44620,b=1.3/56700,62423,b=1.3/72146,82986,b=1.1/86127,87367,b=1.5/92202,94170,b=1.3/96452,96720,b=1.3/103454,109439,b=1.45/109774,112720,b=1.25/114800,116420,b=1.25/124324,127320,b=1.3/132800,139664,b=1.35/144724,145464,b=1.3/148201,151020,b=1.2/153374,165775,b=1.25/174210,222487,b=1.35/223572,224620,b=1.3
    Language : English
    Default : Yes
    Forced : No

    Audio
    ID : 2
    Format : AC-3
    Format/Info : Audio Coding 3
    Mode extension : CM (complete main)
    Format settings, Endianness : Big
    Codec ID : A_AC3
    Duration : 3h 1mn
    Bit rate mode : Constant
    Bit rate : 384 Kbps
    Channel(s) : 6 channels
    Channel positions : Front: L C R, Side: L R, LFE
    Sampling rate : 48.0 KHz
    Frame rate : 31.250 fps (1536 spf)
    Compression mode : Lossy
    Stream size : 498 MiB (24%)
    Language : Hungarian
    Default : Yes
    Forced : No

    Text #1
    ID : 3
    Format : UTF-8
    Codec ID : S_TEXT/UTF8
    Codec ID/Info : UTF-8 Plain Text
    Title : Forced
    Language : Hungarian
    Default : Yes
    Forced : Yes

    Text #2
    ID : 4
    Format : UTF-8
    Codec ID : S_TEXT/UTF8
    Codec ID/Info : UTF-8 Plain Text
    Language : Hungarian
    Default : No
    Forced : No


    **Rejtett tartalom: Klikkelj a Köszönöm gombra, ha szeretnéd látni**



  8. Eddig 7 Felhasználó mondott köszönetet cobretti felhaszlálónak ezért a témáért:

    charmed (2019-09-11),kimika (2019-09-14),kzsjoe (2019-09-14),nintaus (2019-09-16),peter447 (2019-09-19),pocimix (2019-09-10),sleepy933 (2019-09-09)

 

 

A Téma cimkéi

Jogosultságok

  • Nem nyithatsz Új Témát
  • Nem válaszolhatsz a Témában
  • Nem csatolhatsz állományt
  • Nem szerkesztheted a Hozzászólásaid
  •