Results 1 to 5 of 5
  1. #1
    Status
    Offline
    cobretti's Avatar
    Linkellenőr
    Csatlakozott
    13-09-30
    Hozzászólások
    5.301
    Halott Témáim
    Nem, Újraélesztem
    Köszönöm
    181
    161.668 Kapott Köszi 5.181 Témáért

    Star Wars 1-2-3-4-5-6-7-8

    Star Wars I. rész - Baljós árnyak 1999


    Történet:
    Nyugtalanság uralkodik a Galaktikus Köztársaságban. A távoli csillagrendszerekbe irányuló kereskedelmi utak megadóztatásának tervét heves viták övezik. A kapzsi Kereskedelmi Szövetség felfegyverzett csatahajóival blokád alá veszi a parányi Naboo bolygót. A Főkancellár titokban útnak indít két Jedi lovagot, a béke és az igazság szerzőit, hogy oldják meg a konfliktust és védjék meg Amidala királynőt. Hamarosan azonban kényszerleszállást kell végrehajtaniuk a Tatooine-on, ahol találkoznak az ifjú Anakinnal, akiben túlárad az erő.

    Szereplők:
    Ewan McGregor (Obi-Wan Kenobi) Liam Neeson (Qui-Gon Jinn) Natalie Portman (Padmé Amidala királynő) Jake Lloyd (Anakin Skywalker) Ian McDiarmid (Palpatine szenátor) Samuel L. Jackson (Mace Windu) Ahmed Best (Jar Jar Binks hangja) Frank Oz (Yoda hangja) Ray Park (Darth Maul) Hugh Quarshie (Panaka kapitány)


    Format : AVI
    Format/Info : Audio Video Interleave
    File size : 1.36 GiB
    Duration : 2h 10mn
    Overall bit rate : 1 492 Kbps
    Writing application : VirtualDubMod 1.5.10.2 (build 2540/release)
    Writing library : VirtualDubMod build 2540/release

    Video
    ID : 0
    Format : MPEG-4 Visual
    Format profile : Advanced Simple@L5
    Format settings, BVOP : 2
    Format settings, QPel : No
    Format settings, GMC : No warppoints
    Format settings, Matrix : Default (H.263)
    Muxing mode : Packed bitstream
    Codec ID : XVID
    Codec ID/Hint : XviD
    Duration : 2h 10mn
    Bit rate : 1 035 Kbps
    Width : 672 pixels
    Height : 280 pixels
    Display aspect ratio : 2.40:1
    Frame rate : 25.000 fps
    Color space : YUV
    Chroma subsampling : 4:2:0
    Bit depth : 8 bits
    Scan type : Progressive
    Compression mode : Lossy
    Bits/(Pixel*Frame) : 0.220
    Stream size : 967 MiB (69%)
    Writing library : XviD 1.0.3 (UTC 2004-12-20)

    Audio
    ID : 1
    Format : AC-3
    Format/Info : Audio Coding 3
    Format profile : Dolby Digital
    Mode extension : CM (complete main)
    Format settings, Endianness : Big
    Codec ID : 2000
    Duration : 2h 10mn
    Bit rate mode : Constant
    Bit rate : 448 Kbps
    Channel(s) : 2 channels
    Channel positions : Front: L R
    Sampling rate : 48.0 KHz
    Compression mode : Lossy
    Stream size : 419 MiB (30%)
    Alignment : Split accross interleaves
    Interleave, duration : 40 ms (1.00 video frame)
    Interleave, preload duration : 500 ms


    **Rejtett tartalom: Klikkelj a Köszönöm gombra, ha szeretnéd látni**


    Star Wars II. rész - A klónok támadása 2002


    Történet:
    Tíz év telt el az előző részben elbeszélt események óta. A titokzatos Dooku gróf (Christopher Lee) vezetésével naprendszerek lépnek ki a Galaktikus Köztársaságból, míg a maroknyi jedi lovag kevés ahhoz, hogy fenntartsa a békét és a rendet. Padmé Amidala (Natalie Portman) ellenzi a hadsereg felállítását, ezért megpróbálják félreállítani. A tanács testőrt rendel mellé: Obi-Wan Kenobi (Ewan McGregor) tanítványát, az ifjú Anakin Skywalkert (Hayden Christensen) bízzák meg a feladattal. Míg ők a további támadások elől bujkálnak, Obi-Wan a merénylő után nyomoz. Egy távoli bolygón különös titkokra bukkan: egy klóngyárban olyasmi készülődik, amely eldöntheti a közelgő polgárháború kimenetelét.

    Szereplők:
    Ewan McGregor (Obi-Wan Kenobi) Hayden Christensen (Anakin Skywalker) Natalie Portman (Padmé Amidala) Samuel L. Jackson (Mace Windu) Christopher Lee (Dooku gróf) Ian McDiarmid (Palpatine szenátor/Darth Sidious) Pernilla August (Shmi Skywalker) Frank Oz (Yoda hangja) Temuera Morrison (Jango Fett) Ahmed Best (Jar Jar Binks hangja) Anthony Daniels (C-3PO) Kenny Baker (R2-D2) Jimmy Smits (Bail Organa szenátor) Jack Thompson (Cliegg Lars)


    Format : Matroska
    Format version : Version 2
    File size : 1.38 GiB
    Duration : 2h 22mn
    Overall bit rate : 1 383 Kbps
    Encoded date : UTC 2014-05-22 14:57:56
    Writing application : mkvmerge v5.8.0 ('No Sleep / Pillow') built on Sep 2 2012 15:37:04
    Writing library : libebml v1.2.3 + libmatroska v1.3.0

    Video
    ID : 1
    Format : AVC
    Format/Info : Advanced Video Codec
    Format profile : High@L4.1
    Format settings, CABAC : Yes
    Format settings, ReFrames : 16 frames
    Codec ID : V_MPEG4/ISO/AVC
    Duration : 2h 22mn
    Bit rate : 907 Kbps
    Width : 720 pixels
    Height : 306 pixels
    Display aspect ratio : 2.35:1
    Frame rate mode : Constant
    Frame rate : 23.976 fps
    Color space : YUV
    Chroma subsampling : 4:2:0
    Bit depth : 8 bits
    Scan type : Progressive
    Bits/(Pixel*Frame) : 0.172
    Stream size : 925 MiB (66%)
    Writing library : x264 core 129 r2245+729M 1a52e03
    Language : Hungarian
    Default : Yes
    Forced : No

    Audio
    ID : 2
    Format : AC-3
    Format/Info : Audio Coding 3
    Mode extension : CM (complete main)
    Format settings, Endianness : Big
    Codec ID : A_AC3
    Duration : 2h 22mn
    Bit rate mode : Constant
    Bit rate : 448 Kbps
    Channel(s) : 6 channels
    Channel positions : Front: L C R, Side: L R, LFE
    Sampling rate : 48.0 KHz
    Compression mode : Lossy
    Stream size : 457 MiB (32%)
    Language : Hungarian
    Default : Yes
    Forced : No

    Text
    ID : 3
    Format : UTF-8
    Codec ID : S_TEXT/UTF8
    Codec ID/Info : UTF-8 Plain Text
    Language : Hungarian
    Default : Yes
    Forced : Yes


    **Rejtett tartalom: Klikkelj a Köszönöm gombra, ha szeretnéd látni**


    Star Wars III. rész - A Sith-ek bosszúja 2005


    Történet:
    A tanács Obi-Wan Kenobit (Ewan McGregor) bízza meg azzal, hogy felkutassa és a törvény színe elé hozza őket a klónháború felelőseit. Ezalatt Palpatine szenátor (Ian McDiarmid) egyre nagyobb hatalomra tesz szert, létrehozza a Galaktikus Birodalmat. A szenátor közvetlen társaságában Anakin (Hayden Christensen) egyre nehezebben tud ellenállni Palpatine befolyásának, aki mindent elkövet, hogy a fiatal jedit a sötét oldalra csábítsa.

    Szereplők:
    Ewan McGregor (Obi-Wan Kenobi) Natalie Portman (Senator Amidala/Padmé Naberrie-Skywalker) Samuel L. Jackson (Mace Windu) Hayden Christensen (Anakin Skywalker/Darth Vader) Kenny Baker (R2-D2) Christopher Lee (Count Dooku/Darth Tyranus) Ian McDiarmid (Emperor Palpatine/Darth Sidious) Anthony Daniels (C-3PO) Peter Mayhew (Chewbacca) Frank Oz (Yoda hangja)


    Format : AVI
    Format/Info : Audio Video Interleave
    File size : 1.36 GiB
    Duration : 2h 14mn
    Overall bit rate : 1 452 Kbps
    Writing application : VirtualDubMod 1.5.10.2 (build 2540/release)
    Writing library : VirtualDubMod build 2540/release

    Video
    ID : 0
    Format : MPEG-4 Visual
    Format profile : Advanced Simple@L5
    Format settings, BVOP : 2
    Format settings, QPel : No
    Format settings, GMC : No warppoints
    Format settings, Matrix : Default (H.263)
    Muxing mode : Packed bitstream
    Codec ID : XVID
    Codec ID/Hint : XviD
    Duration : 2h 14mn
    Bit rate : 1 058 Kbps
    Width : 672 pixels
    Height : 272 pixels
    Display aspect ratio : 2.471
    Frame rate : 25.000 fps
    Color space : YUV
    Chroma subsampling : 4:2:0
    Bit depth : 8 bits
    Scan type : Progressive
    Compression mode : Lossy
    Bits/(Pixel*Frame) : 0.232
    Stream size : 1 017 MiB (73%)
    Writing library : XviD 1.0.3 (UTC 2004-12-20)

    Audio
    ID : 1
    Format : AC-3
    Format/Info : Audio Coding 3
    Mode extension : CM (complete main)
    Format settings, Endianness : Big
    Codec ID : 2000
    Duration : 2h 14mn
    Bit rate mode : Constant
    Bit rate : 384 Kbps
    Channel(s) : 6 channels
    Channel positions : Front: L C R, Side: L R, LFE
    Sampling rate : 48.0 KHz
    Compression mode : Lossy
    Stream size : 369 MiB (26%)
    Alignment : Split accross interleaves
    Interleave, duration : 40 ms (1.00 video frame)
    Interleave, preload duration : 500 ms


    **Rejtett tartalom: Klikkelj a Köszönöm gombra, ha szeretnéd látni**


    Star Wars IV. rész - Csillagok háborúja 1977


    Történet:
    Réges régen, egy távoli galaxisban kezdődött a nagy kaland, amikor Leia Organa hercegnő (Carrie Fisher) két fura robottal egy alig értékelhető hologramot küldött az egyetlen Jedi lovagnak, a remeteként élő Ben Kenobinak (Alec Guinness). Az idős jedi Luke Skywalker (Mark Hamill), Han Solo (Harrison Ford) és szőrős vukija, a hatalmas Chewbacca társaságában útra kel, hogy kiszabadítsa a hercegnőt Darth Vader fogságából, és győzelemre vigye az igaz ügyet az egész Galaxisban.

    Szereplők:
    Mark Hamill (Luke Skywalker) Carrie Fisher (Leia Organa hercegnő) Harrison Ford (Han Solo) Alec Guinness (Ben Kenobi) Anthony Daniels (C-3PO) Peter Cushing (Grand Moff Wilhuff Tarkin) Kenny Baker (R2-D2) Peter Mayhew (Chewbacca) James Earl Jones (Dart Vader hangja) David Prowse (Darth Vader)


    Format : AVI
    Format/Info : Audio Video Interleave
    File size : 1.36 GiB
    Duration : 1h 59mn
    Overall bit rate : 1 632 Kbps
    Writing application : VirtualDubMod 1.5.10.2 (build 2540/release)
    Writing library : VirtualDubMod build 2540/release

    Video
    ID : 0
    Format : MPEG-4 Visual
    Format profile : Advanced Simple@L5
    Format settings, BVOP : 2
    Format settings, QPel : No
    Format settings, GMC : No warppoints
    Format settings, Matrix : Default (H.263)
    Muxing mode : Packed bitstream
    Codec ID : XVID
    Codec ID/Hint : XviD
    Duration : 1h 59mn
    Bit rate : 1 430 Kbps
    Width : 672 pixels
    Height : 272 pixels
    Display aspect ratio : 2.471
    Frame rate : 25.000 fps
    Color space : YUV
    Chroma subsampling : 4:2:0
    Bit depth : 8 bits
    Scan type : Progressive
    Compression mode : Lossy
    Bits/(Pixel*Frame) : 0.313
    Stream size : 1.19 GiB (88%)
    Writing library : XviD 1.0.3 (UTC 2004-12-20)

    Audio
    ID : 1
    Format : AC-3
    Format/Info : Audio Coding 3
    Format profile : Dolby Digital
    Mode extension : CM (complete main)
    Format settings, Endianness : Big
    Codec ID : 2000
    Duration : 1h 59mn
    Bit rate mode : Constant
    Bit rate : 192 Kbps
    Channel(s) : 2 channels
    Channel positions : Front: L R
    Sampling rate : 48.0 KHz
    Compression mode : Lossy
    Stream size : 164 MiB (12%)
    Alignment : Split accross interleaves
    Interleave, duration : 40 ms (1.00 video frame)
    Interleave, preload duration : 500 ms


    **Rejtett tartalom: Klikkelj a Köszönöm gombra, ha szeretnéd látni**


    Star Wars V. rész - A Birodalom visszavág 1980


    Történet:
    A felkelők maréknyi csapata a hó borította Hoth bolygó földalatti támaszpontján rejtőzködik. A szondák azonban felfedik a rejtekhelyet és hamarosan birodalmi lépegetők lepik el a bolygót. Han Solo, Chewbacca és Leia a megbízhatatlan Lando Calrissian segítségét kérik. Nem is sejtik, hogy a birodalom rettegett ura, Darth Vader már várja őket nem kis meglepetést tartogatva Han számára. Luke Skywalker a Dagobah rendszerben az utolsó és legnagyobb Jedit, Yodát keresi, hogy felkészülhessen a végső összecsapásra az Erő sötét oldalával. A sodró lendületű akció, a speciális effektusok és George Lucas varázslatos képzelőereje a mozitörténet és a sorozat egyik legnagyobb alkotásává teszi a filmet.

    Szereplők:
    Mark Hamill (Luke Skywalker) Harrison Ford (Han Solo) Carrie Fisher (Leia Organa hercegnő) David Prowse (Darth Vader) Peter Mayhew (Chewbacca) Frank Oz (Yoda) Alec Guinness (Obi-Wan Kenobi)


    Format : AVI
    Format/Info : Audio Video Interleave
    File size : 747 MiB
    Duration : 2h 1mn
    Overall bit rate : 858 Kbps
    Writing application : VirtualDubMod 1.5.4.1 (build 2178/release)
    Writing library : VirtualDubMod build 2178/release

    Video
    ID : 0
    Format : MPEG-4 Visual
    Format profile : Simple@L3
    Format settings, BVOP : 1
    Format settings, QPel : No
    Format settings, GMC : No warppoints
    Format settings, Matrix : Custom
    Codec ID : XVID
    Codec ID/Hint : XviD
    Duration : 2h 1mn
    Bit rate : 659 Kbps
    Width : 656 pixels
    Height : 272 pixels
    Display aspect ratio : 2.40:1
    Frame rate : 25.000 fps
    Color space : YUV
    Chroma subsampling : 4:2:0
    Bit depth : 8 bits
    Scan type : Progressive
    Compression mode : Lossy
    Bits/(Pixel*Frame) : 0.148
    Stream size : 573 MiB (77%)
    Writing library : XviD 1.1.0 Beta2 (UTC 2005-04-04)

    Audio
    ID : 1
    Format : AC-3
    Format/Info : Audio Coding 3
    Format profile : Dolby Digital
    Mode extension : CM (complete main)
    Format settings, Endianness : Big
    Codec ID : 2000
    Duration : 2h 1mn
    Bit rate mode : Constant
    Bit rate : 192 Kbps
    Channel(s) : 2 channels
    Channel positions : Front: L R
    Sampling rate : 48.0 KHz
    Compression mode : Lossy
    Stream size : 167 MiB (22%)
    Alignment : Split accross interleaves
    Interleave, duration : 96 ms (2.40 video frames)
    Interleave, preload duration : 96 ms
    Language : Magyar


    **Rejtett tartalom: Klikkelj a Köszönöm gombra, ha szeretnéd látni**


    Star Wars VI. rész - A Jedi visszatér 1983


    Történet:
    Miután Luke (Mark Hamill) megmentette barátját, Han Solót és a szépséges Leia (Carrie Fisher) hercegnőt a biztos haláltól, ismét csatlakozik Yodához, hiszen igazi jedi lovaggá kell válnia ahhoz, hogy szembeszállhasson Darth Vaderrel (Sebastian Shaw) és az Erő sötét oldalával. Végre eljött a végső összecsapás ideje! A felkelők készen állnak arra, hogy megsemmisítő csapást mérjenek a Halálcsillagra. Arra azonban nem számítanak, hogy a bolygót elpusztíthatatlan energiapajzs védi és a Birodalom csapdába csalja őket.

    Szereplők:
    Mark Hamill (Luke Skywalker) Sebastian Shaw (Anakin Skywalker) Harrison Ford (Han Solo) Carrie Fisher (Leia Organa hercegnő) Anthony Daniels (See-Threepio) Billy Dee Williams (Lando Calrissian) Peter Mayhew (Chewbacca) Ian McDiarmid (Palpatine császár) Frank Oz (Yoda hangja) James Earl Jones (Darth Vader hangja) David Prowse (Darth Vader) Alec Guinness (Ben (Obi-Wan) Kenobi) Kenny Baker (Artoo-Detoo)


    Format : AVI
    Format/Info : Audio Video Interleave
    File size : 1.36 GiB
    Duration : 2h 9mn
    Overall bit rate : 1 511 Kbps
    Writing application : VirtualDubMod 1.5.10.2 (build 2540/release)
    Writing library : VirtualDubMod build 2540/release

    Video
    ID : 0
    Format : MPEG-4 Visual
    Format profile : Advanced Simple@L5
    Format settings, BVOP : 2
    Format settings, QPel : No
    Format settings, GMC : No warppoints
    Format settings, Matrix : Default (H.263)
    Muxing mode : Packed bitstream
    Codec ID : XVID
    Codec ID/Hint : XviD
    Duration : 2h 9mn
    Bit rate : 1 309 Kbps
    Width : 672 pixels
    Height : 264 pixels
    Display aspect ratio : 2.545
    Frame rate : 25.000 fps
    Color space : YUV
    Chroma subsampling : 4:2:0
    Bit depth : 8 bits
    Scan type : Progressive
    Compression mode : Lossy
    Bits/(Pixel*Frame) : 0.295
    Stream size : 1.18 GiB (87%)
    Writing library : XviD 1.0.3 (UTC 2004-12-20)

    Audio
    ID : 1
    Format : AC-3
    Format/Info : Audio Coding 3
    Format profile : Dolby Digital
    Mode extension : CM (complete main)
    Format settings, Endianness : Big
    Codec ID : 2000
    Duration : 2h 9mn
    Bit rate mode : Constant
    Bit rate : 192 Kbps
    Channel(s) : 2 channels
    Channel positions : Front: L R
    Sampling rate : 48.0 KHz
    Compression mode : Lossy
    Delay relative to video : 124ms
    Stream size : 177 MiB (13%)
    Alignment : Split accross interleaves
    Interleave, duration : 40 ms (1.00 video frame)
    Interleave, preload duration : 500 ms


    **Rejtett tartalom: Klikkelj a Köszönöm gombra, ha szeretnéd látni**



    Star Wars VII. rész - Az ébredö Erö 2015


    Történet:
    Körülbelül 30 évvel járunk a második Halálcsillag elpusztítása után. Luke Skywalker, az utolsó élő Jedi eltűnt. Mind a Galaktikus Birodalom utóda, az Első Rend, és az Új Köztársaságért harcoló ellenállók (akiket Luke testvére, Leia tábornok vezet) lázasan keresik őt...

    Szereplők:
    Harrison Ford, Mark Hamill, Carrie Fisher, Adam Driver, Daisy Ridley


    Format : Matroska
    Format version : Version 4 / Version 2
    File size : 1.77 GiB
    Duration : 2h 18mn
    Overall bit rate : 1 834 Kbps
    Encoded date : UTC 2016-04-08 12:55:56
    Writing application : mkvmerge v8.0.0 ('Til The Day That I Die') 64bit
    Writing library : libebml v1.3.1 + libmatroska v1.4.2
    DURATION : 00:58:33.055000000
    NUMBER_OF_FRAMES : 28
    NUMBER_OF_BYTES : 830
    _STATISTICS_WRITING_APP : mkvmerge v8.0.0 ('Til The Day That I Die') 64bit
    _STATISTICS_WRITING_DATE_UTC : 2016-04-08 12:55:56
    _STATISTICS_TAGS : BPS DURATION NUMBER_OF_FRAMES NUMBER_OF_BYTES

    Video
    ID : 1
    Format : AVC
    Format/Info : Advanced Video Codec
    Format profile : High@L4.1
    Format settings, CABAC : Yes
    Format settings, ReFrames : 16 frames
    Codec ID : V_MPEG4/ISO/AVC
    Duration : 2h 18mn
    Bit rate : 1 413 Kbps
    Width : 720 pixels
    Height : 300 pixels
    Display aspect ratio : 2.40:1
    Frame rate mode : Constant
    Frame rate : 23.976 fps
    Color space : YUV
    Chroma subsampling : 4:2:0
    Bit depth : 8 bits
    Scan type : Progressive
    Bits/(Pixel*Frame) : 0.273
    Stream size : 1.36 GiB (77%)
    Writing library : x264 core 148 r2665kMod a01e339
    Default : Yes
    Forced : No
    DURATION : 02:18:06.695000000
    NUMBER_OF_FRAMES : 198682
    NUMBER_OF_BYTES : 1499798755
    _STATISTICS_WRITING_APP : mkvmerge v8.0.0 ('Til The Day That I Die') 64bit
    _STATISTICS_WRITING_DATE_UTC : 2016-04-08 12:55:56
    _STATISTICS_TAGS : BPS DURATION NUMBER_OF_FRAMES NUMBER_OF_BYTES

    Audio
    ID : 2
    Format : AC-3
    Format/Info : Audio Coding 3
    Mode extension : CM (complete main)
    Format settings, Endianness : Big
    Codec ID : A_AC3
    Duration : 2h 18mn
    Bit rate mode : Constant
    Bit rate : 384 Kbps
    Channel(s) : 6 channels
    Channel positions : Front: L C R, Side: L R, LFE
    Sampling rate : 48.0 KHz
    Compression mode : Lossy
    Stream size : 379 MiB (21%)
    Language : Hungarian
    Default : Yes
    Forced : No

    Text #1
    ID : 3
    Format : UTF-8
    Codec ID : S_TEXT/UTF8
    Codec ID/Info : UTF-8 Plain Text
    Language : Hungarian
    Default : Yes
    Forced : Yes

    Text #2
    ID : 4
    Format : UTF-8
    Codec ID : S_TEXT/UTF8
    Codec ID/Info : UTF-8 Plain Text
    Language : Hungarian
    Default : No
    Forced : No


    **Rejtett tartalom: Klikkelj a Köszönöm gombra, ha szeretnéd látni**



    Zsivány Egyes: Egy Star Wars történet 2016


    Történet:
    A Lucasfilm bemutatja az első különálló Star Wars-filmet, a Zsivány Egyes: Egy Star Wars-történetet, amely egy teljesen új kalandot mesél el.
    A galaxisban dúló háború alatt szokatlan hősök verődnek össze, hogy egy képtelennek tűnő küldetés keretében ellopják a Birodalom pusztító fegyvere, a Halálcsillag tervrajzait. A Star Wars-univerzum eme kulcsmomentuma hétköznapi embereket hoz össze, akik nem mindennapi tetteket hajtanak végre, s közben részeseivé válnak valaminek, ami messze túlmutat rajtuk...

    Szereplők:
    Mads Mikkelsen, Felicity Jones, Alan Tudyk, Ben Mendelsohn, Forest Whitaker, Donnie Yen, Diego Luna, Riz Ahmed, Jonathan Aris, Mark Preston Miller


    Format : AVI
    Format/Info : Audio Video Interleave
    File size : 1.90 GiB
    Duration : 2h 13mn
    Overall bit rate : 2 033 Kbps
    Writing application : VirtualDubMod 1.5.10.2 (build 2540/release)
    Writing library : VirtualDubMod build 2540/release

    Video
    ID : 0
    Format : MPEG-4 Visual
    Format profile : Advanced Simple@L5
    Format settings, BVOP : 1
    Format settings, QPel : No
    Format settings, GMC : No warppoints
    Format settings, Matrix : Default (MPEG)
    Codec ID : XVID
    Codec ID/Hint : XviD
    Duration : 2h 13mn
    Bit rate : 1 576 Kbps
    Width : 720 pixels
    Height : 304 pixels
    Display aspect ratio : 2.35:1
    Frame rate : 23.976 fps
    Color space : YUV
    Chroma subsampling : 4:2:0
    Bit depth : 8 bits
    Scan type : Progressive
    Compression mode : Lossy
    Bits/(Pixel*Frame) : 0.300
    Stream size : 1.47 GiB (78%)
    Writing library : XviD 73

    Audio
    ID : 1
    Format : AC-3
    Format/Info : Audio Coding 3
    Mode extension : CM (complete main)
    Format settings, Endianness : Big
    Codec ID : 2000
    Duration : 2h 13mn
    Bit rate mode : Constant
    Bit rate : 448 Kbps
    Channel(s) : 6 channels
    Channel positions : Front: L C R, Side: L R, LFE
    Sampling rate : 48.0 KHz
    Compression mode : Lossy
    Stream size : 429 MiB (22%)
    Alignment : Split accross interleaves
    Interleave, duration : 42 ms (1.00 video frame)
    Interleave, preload duration : 500 ms



    **Rejtett tartalom: Klikkelj a Köszönöm gombra, ha szeretnéd látni**







    Hasonló témák:
      Last edited by cobretti; 2018-05-02 at 16:22.

    • Eddig 346 Felhasználó mondott köszönetet cobretti felhaszlálónak ezért a témáért:

      1478963 (2017-09-14),555 (2017-08-14),ALDRON (2017-05-08),alex-52 (2017-10-23),alex29 (2017-12-27),Alexejew (2017-07-16),amig (2017-11-05),And.r68 (2017-06-16),andi (2017-12-10),Andino2 (2017-09-23),andyda (2018-01-20),anette (2017-12-28),Anita0212 (2017-08-03),arno (2018-04-11),asnaeb (2017-09-07),Astor80 (2017-08-19),atis66 (2017-05-23),Atitati46 (2017-08-16),azgyula (2017-06-28),Azra (2018-05-06),Bűvös Vadász (2017-06-09),baka (2018-03-16),Balagesk (2017-04-20),Balazsk74 (2017-07-26),Baranya (2018-02-26),Bauka1 (2017-04-20),baxilaci (2018-04-21),bbtorr (2017-05-08),benijoe (2017-06-15),besco (2017-05-07),Bezope (2017-12-14),birkaporkolt (2017-04-26),bkaresz (2017-12-25),blobov (2018-04-14),Bobbyboy (2017-07-14),borovichka (2017-04-22),borzalyno (2017-05-19),brandy11 (2018-01-20),Brunnentaler (2017-06-29),bubosvocsok (2017-04-30),budvar (2017-04-22),Burns (2018-05-16),Carlos (2017-04-20),ceanka (2018-05-13),cerberus (2018-01-06),cibe (2017-08-25),cinomanus (2017-10-02),Cobra parancsnok (2017-08-28),Comondor (2017-04-23),Cooller (2017-08-17),Cortez (2018-05-12),crueso (2017-08-04),csabika73 (2017-07-06),csoki29 (2018-02-16),cumis (2018-04-13),CutePoison (2018-03-24),cybere12 (2017-11-24),CzJames (2017-11-19),dacan (2017-07-02),danireal (2018-04-04),datah (2018-04-08),Davalon (2018-01-17),decsik (2017-11-12),democles (2018-03-25),Denisam (2018-04-02),deRossi333 (2018-03-12),diablozoll (2017-04-28),DiegoSan (2018-01-06),dió53 (Ma),djani47 (2017-05-20),djdon76 (2017-04-23),dobostorta (2018-04-02),domper73 (2017-11-19),don wolf (2018-07-18),donci (2018-04-09),dozsi75 (2018-01-15),dtstudio (2017-05-01),dunde (2017-04-28),egerhazij (2017-05-07),elcsi1 (2017-12-25),elta62 (2017-04-21),Engii85 (2018-02-26),érdekel (2017-07-18),fabianz (2017-11-10),fallamanuel (2017-08-23),fandeli (2017-04-29),fbk72 (2017-12-21),fecafeca (2017-09-07),feco25 (2017-05-20),feri963 (2017-05-28),feroVT (2017-08-26),fgaab (2017-11-19),flendep (2017-12-21),fpeter69 (2018-04-04),Francesco69 (2017-04-27),gabika80 (2017-10-23),gabnailg (2017-12-07),gaborsebo88 (2017-05-19),gandi13 (2017-04-21),gere007 (2017-12-09),Geronimo1829 (2017-08-13),Geza001 (2018-01-19),gibi (2017-07-13),gina2335 (2018-04-08),gj680315 (2017-10-16),gkvez (2018-03-17),glutamino (2017-04-20),gomolan (2018-04-10),gupi76 (2017-10-20),gyupi (2017-12-12),gyuri1970 (2018-01-03),Gyuri4074 (2017-06-10),gzlulu65 (2017-06-27),hambell11 (2017-07-10),HázMester (2017-12-12),hbilux (2018-01-14),hejjaimi (2018-03-12),henrik0705 (2017-12-17),hjózsef (2018-04-14),honda0125 (2018-05-20),horesz_peti (2018-04-07),huncadék81 (2017-09-25),Hurri81 (2017-04-30),ikarus255 (2017-11-13),iravo (2018-04-21),izébiz (2017-12-24),jacsi (2018-01-26),janojany (2017-09-03),Jaxxhardy (2018-04-05),joco13 (2017-12-13),joco53 (2017-05-05),Joco88 (2017-12-22),jrezsi (2018-04-02),jules67 (2017-10-25),k.janika (2017-04-21),Kajak (2017-09-13),Kalman52 (2018-05-14),Kampeca (2017-09-02),Kane1000 (2017-11-24),kantavar (2018-05-23),kapa (2017-06-09),kapcsi (2018-05-03),kapsinik (2017-11-11),kentaur00 (2018-02-04),Kertepites (2017-09-28),kfozo (2017-12-27),KILOS (2018-06-01),kisfuszi (2018-04-28),Kiskert (2017-07-30),kisking (2017-10-27),kisködmön (2017-07-30),kisslaura (2017-05-07),kjapo (2017-04-21),klacypi (2017-09-14),klima (2017-04-21),koko1789 (2018-01-25),kopasz2 (2017-07-21),kormos38 (2017-04-23),kov56 (2017-04-20),kowwi (2017-09-19),krisztamica (2017-11-19),kryan (2017-07-11),krycek07 (2017-08-08),kucwalder (2017-05-23),kuka66 (2017-08-07),lac73 (2017-10-23),laca1052 (2017-10-28),lacee (2017-05-16),laci12 (2017-07-02),laci48 (2018-02-27),Laslien (2018-04-02),lbacsi (2017-04-20),Lemmi1 (2017-10-29),LeoSixOOSevven (2017-08-24),levente1986 (2017-05-21),levikb1 (2017-12-18),levike74 (2017-05-23),lilymuci (2017-10-26),limboo (2018-04-02),LordDradon (2018-01-09),lsc971x (2018-05-21),luigi (2017-04-22),lynxpepe (2018-06-29),m60 (2018-01-04),maci53 (2018-03-03),Macka (2017-10-30),MadLaci (2018-05-12),Maja74 (2018-02-01),Makima (2018-04-28),maldokeus (2017-09-09),mano2221 (2018-04-13),Manocska2 (2018-02-20),meduniv (2018-05-06),mi.85 (2018-04-05),miciati (2018-06-06),midea (2017-08-12),miklos1969 (2017-11-07),Mikulszki (2017-05-28),mili8625 (2018-05-28),misi2005 (2017-08-19),mizo (2018-04-11),Mohabacsi (2017-05-07),mojzy43 (2017-05-21),monte (2018-04-28),More (2017-12-27),morght (2018-04-17),morustamas01 (2017-04-20),mucsifero (2018-03-02),muki65 (2017-12-24),mykusz (2018-01-01),nadalevi (2018-04-07),nagyi60 (2017-12-06),NagyO (2017-09-04),nakamisi (2017-12-25),nano53 (2018-01-19),neo500 (2018-01-16),nnnrrr (2017-11-05),nonok (2017-04-20),Norina63 (2017-10-02),notorius (2017-05-07),novoszathg (2017-08-25),ntglaci (2017-04-22),nutika (2017-10-22),nyegusz (2017-10-10),oldboy (2017-04-28),oldman (2017-06-14),oliver890321 (2017-06-19),onlyhorror (2017-11-02),ooops (2017-09-08),orosz1 (2017-04-21),Osai (2017-11-11),ovcsarka (2017-04-28),pandam (2018-05-26),papajoe (2017-08-19),papamaci70 (2017-04-23),Papsz (2017-04-24),paralaksz (2017-05-06),password1000 (2017-08-27),percsi8 (2017-04-21),petrolsan (2017-04-20),pikuka (2017-07-23),pityuapu57 (2017-05-21),pl54pl (2017-08-29),pmbm (2017-04-27),pocimix (2018-04-04),pokg (2018-03-10),proba (2017-12-19),Quadis11 (2017-04-28),qwent (2017-06-25),raf (2017-12-09),repulo (2017-08-22),repulosgizi (2018-03-18),Ricsireg (2017-07-15),rikancs (2017-05-14),Roba (2017-05-26),robin (2017-09-03),Robogoka (2017-10-04),roland67 (2018-04-13),rossi81 (2018-04-12),sacz61 (2017-12-19),sagem (2018-04-29),salom1973 (2018-01-21),salvat0re (2018-04-02),Samanoskue (2017-05-14),Santana48 (2018-05-22),sanyi60 (2017-11-12),sassam (2017-12-16),schmoll (2017-11-01),seat2002 (2017-07-09),shaw-007 (2018-04-26),Shogun (2018-06-02),simicsko (2017-04-29),sinhead (2018-01-06),siposar (2018-05-23),sirchris (2017-04-20),Spiritsystem (2017-11-04),stencer (2018-05-11),stimmt (2018-04-08),stinger21 (2017-10-27),stoky01 (2017-09-20),stugnya (2017-11-13),suarezz (2018-04-10),subaba71 (2017-04-30),suzu (2018-04-07),Synx (2018-04-04),szabolcs0423 (2017-05-22),Szabyka (2018-05-01),szajc (2018-01-05),szandy22 (2018-05-14),szeplakine69 (2018-05-19),szgabi (2017-12-17),szivacs3 (2017-12-16),szjani30 (2017-12-10),Szoeke (2018-04-10),sztiv70 (2018-04-02),T-64 (2017-06-04),T1985 (2017-04-21),t6p (2017-12-21),Tabadam (2018-01-06),tajfotos (2018-01-21),targonca (2017-12-30),Taylorius (2017-07-31),Tegla (2018-04-29),Terebint (2017-10-11),terraposta (2018-02-19),teve70 (2017-12-09),Tibann (2017-09-03),Tibiota (2017-08-30),tiborius h (2018-03-06),Tigleon (2018-04-02),Tigrisliliom (2018-01-09),tiszteletes (2018-05-10),Tittytwister (2018-04-03),Tityu (2017-11-13),tolose (2018-02-28),tomas (2017-05-02),tomasz32 (2017-09-03),Tomasz7 (2017-08-13),tonaludatus7 (2018-05-21),torpe129 (2018-04-02),TothAdam (2017-04-30),Trallala66 (2017-05-21),Tungalag (2017-11-16),univerzum999 (2017-04-25),vagabundika (2017-08-05),vanekok1 (2017-10-19),vati (2017-06-25),Vegamen (2017-04-22),vegsogabor (2017-07-07),vejko (2018-04-05),via74 (2018-01-05),vico (2018-05-22),vivilaca (2017-04-20),volver30 (2018-04-19),Vrpca (2018-04-02),vywaras (2018-05-18),Wall-e (2017-04-23),wyly (2018-02-05),yanko (2018-06-04),Yucundus (2017-10-30),z.istvan (2017-10-20),zoli01 (2018-04-20),zoli6908 (2017-10-23),zorroo70 (2017-10-26),Zsoel (2018-03-17),öregapó (2018-01-25)

    • #2
      Status
      Offline
      oldman's Avatar
      Regisztrált tag
      Csatlakozott
      13-05-12
      Hozzászólások
      2
      Halott Témáim
      Nem, Újraélesztem
      Köszönöm
      55
      Köszönöm4 Köszi 1 Témáér
      hali! SW8 mind a 2 link hakott. ha cserélnéd megköszönném.

      Halott linkeket javítom, küldj PÜ-t.

    • Eddig 4 Felhasználó mondott köszönetet oldman felhaszlálónak ezért a témáért:

      Alexejew (2018-05-28),Kalman52 (2018-05-14),sagem (2018-04-29),tiszteletes (2018-05-10)

    • #3
      Status
      Offline
      peter magyar's Avatar
      Támogató
      Csatlakozott
      13-09-03
      Hozzászólások
      3
      Halott Témáim
      Igen, Törölhető
      Köszönöm
      416
      2 Kapott Köszi 2 Témáért
      Hello
      A zsivany egyest ra tudnad rakni ujra
      koszi


    • A következő felhasználók köszönték meg peter magyar hozzászólását

      Alexejew (2018-05-28)

    • #4
      Status
      Offline
      cobretti's Avatar
      Linkellenőr
      Csatlakozott
      13-09-30
      Hozzászólások
      5.301
      Halott Témáim
      Nem, Újraélesztem
      Köszönöm
      181
      161.668 Kapott Köszi 5.181 Témáért

      Star Wars VIII. rész - Az utolsó Jedik





      Történet:
      Rey rátalált Luke Skywalkerre, azonban még sok kérdésre kell választ találnia sorsát illetően, miközben Kylo Ren erőt gyűjt, hogy visszavágjon...


      Szereplők:
      Tom Hardy, Daisy Ridley, Adam Driver, Lucasfilm, Mark Hamill, Domhnall Gleeson, Gwendoline Christie, Oscar Isaac, Benicio del Toro, Laura Dern


      Format : Matroska
      Format version : Version 4 / Version 2
      File size : 1.61 GiB
      Duration : 2 h 31 min
      Overall bit rate : 1 518 kb/s
      Encoded date : UTC 2018-04-15 01:57:25
      Writing application : mkvmerge v22.0.0 ('At The End Of The World') 64-bit
      Writing library : libebml v1.3.5 + libmatroska v1.4.8

      Video
      ID : 1
      Format : AVC
      Format/Info : Advanced Video Codec
      Format profile : High@L4.1
      Format settings, CABAC : Yes
      Format settings, RefFrames : 16 frames
      Codec ID : V_MPEG4/ISO/AVC
      Duration : 2 h 31 min
      Bit rate : 876 kb/s
      Width : 720 pixels
      Height : 302 pixels
      Display aspect ratio : 2.40:1
      Frame rate mode : Constant
      Frame rate : 23.976 (24000/1001) FPS
      Color space : YUV
      Chroma subsampling : 4:2:0
      Bit depth : 8 bits
      Scan type : Progressive
      Bits/(Pixel*Frame) : 0.168
      Stream size : 951 MiB (58%)
      Writing library : x264 core 152 r2851kMod ba24899
      Language : English
      Default : Yes
      Forced : No

      Audio
      ID : 2
      Format : AC-3
      Format/Info : Audio Coding 3
      Format settings, Endianness : Big
      Codec ID : A_AC3
      Duration : 2 h 31 min
      Bit rate mode : Constant
      Bit rate : 640 kb/s
      Channel(s) : 6 channels
      Channel positions : Front: L C R, Side: L R, LFE
      Sampling rate : 48.0 kHz
      Frame rate : 31.250 FPS (1536 SPF)
      Bit depth : 16 bits
      Compression mode : Lossy
      Stream size : 695 MiB (42%)
      Language : Hungarian
      Service kind : Complete Main
      Default : Yes
      Forced : No

      Text
      ID : 3
      Format : UTF-8
      Codec ID : S_TEXT/UTF8
      Codec ID/Info : UTF-8 Plain Text
      Duration : 2 h 22 min
      Bit rate : 39 b/s
      Count of elements : 1577
      Stream size : 41.0 KiB (0%)
      Language : Hungarian
      Default : No
      Forced : No

      Menu
      00:00:00.000 : en:00:00:00.000
      00:00:18.644 : en:00:00:18.644
      00:01:45.731 : en:00:01:45.731
      00:03:11.817 : en:00:03:11.817
      00:07:43.296 : en:00:07:43.296
      00:12:48.434 : en:00:12:48.434
      00:13:44.574 : en:00:13:44.574
      00:16:29.280 : en:00:16:29.280
      00:19:59.281 : en:00:19:59.281
      00:22:51.370 : en:00:22:51.370
      00:26:04.980 : en:00:26:04.980
      00:27:22.850 : en:00:27:22.850
      00:31:24.758 : en:00:31:24.758
      00:32:54.681 : en:00:32:54.681
      00:35:27.667 : en:00:35:27.667
      00:38:11.498 : en:00:38:11.498
      00:41:53.428 : en:00:41:53.428
      00:44:29.542 : en:00:44:29.542
      00:46:51.475 : en:00:46:51.475
      00:51:41.932 : en:00:51:41.932
      00:53:50.060 : en:00:53:50.060
      00:55:41.505 : en:00:55:41.505
      00:57:39.581 : en:00:57:39.581
      00:59:16.636 : en:00:59:16.636
      01:02:05.847 : en:01:02:05.847
      01:03:07.701 : en:01:03:07.701
      01:05:41.729 : en:01:05:41.729
      01:07:03.478 : en:01:07:03.478
      01:10:25.721 : en:01:10:25.721
      01:13:30.323 : en:01:13:30.323
      01:17:43.450 : en:01:17:43.450
      01:20:53.057 : en:01:20:53.057
      01:24:17.970 : en:01:24:17.970
      01:26:23.220 : en:01:26:23.220
      01:27:59.524 : en:01:27:59.524
      01:30:49.361 : en:01:30:49.361
      01:32:54.569 : en:01:32:54.569
      01:35:53.706 : en:01:35:53.706
      01:37:10.616 : en:01:37:10.616
      01:39:12.864 : en:01:39:12.864
      01:42:07.663 : en:01:42:07.663
      01:45:03.714 : en:01:45:03.714
      01:49:35.694 : en:01:49:35.694
      01:52:20.609 : en:01:52:20.609
      01:56:04.749 : en:01:56:04.749
      01:58:52.083 : en:01:58:52.083
      02:03:11.134 : en:02:03:11.134
      02:06:39.759 : en:02:06:39.759
      02:11:43.604 : en:02:11:43.604
      02:15:12.104 : en:02:15:12.104
      02:20:16.700 : en:02:20:16.700
      02:23:39.694 : en:02:23:39.694



      **Rejtett tartalom: Klikkelj a Köszönöm gombra, ha szeretnéd látni**



      Last edited by cobretti; 2018-04-27 at 16:28.

    • Eddig 26 Felhasználó mondott köszönetet cobretti felhaszlálónak ezért a témáért:

      80man (2018-06-03),Alexejew (2018-05-28),ceanka (2018-05-13),djdon76 (2018-06-24),don wolf (2018-07-18),ducko (2018-07-15),gina2335 (2018-05-01),Kalman52 (2018-05-14),kapcsi (2018-05-03),kimika (2018-04-28),Maotun (2018-06-16),meduniv (2018-05-06),nagyjanoska82 (2018-05-06),oldman (2018-04-28),pereczs (2018-05-16),petrolsan (2018-04-29),pl54pl (2018-05-30),runci64 (2018-05-09),sagem (2018-04-29),Szabyka (2018-05-01),tass500 (2018-05-12),Tegla (2018-04-29),vajkol18 (2018-05-03),vati (2018-05-12),Viola07 (2018-05-27),vywaras (2018-05-18)

    • #5
      Status
      Offline
      cobretti's Avatar
      Linkellenőr
      Csatlakozott
      13-09-30
      Hozzászólások
      5.301
      Halott Témáim
      Nem, Újraélesztem
      Köszönöm
      181
      161.668 Kapott Köszi 5.181 Témáért
      Halott linkek cserélve, az összes rész tölthető 2018-05-06


    • Eddig 6 Felhasználó mondott köszönetet cobretti felhaszlálónak ezért a témáért:

      Alexejew (2018-05-28),ceanka (2018-05-13),Kalman52 (2018-05-14),Shogun (2018-06-02),siposar (2018-05-23),yanko (2018-06-04)

     

     

    A Téma cimkéi

    Jogosultságok

    • Nem nyithatsz Új Témát
    • Nem válaszolhatsz a Témában
    • Nem csatolhatsz állományt
    • Nem szerkesztheted a Hozzászólásaid
    •