Results 1 to 1 of 1
  1. #1
    Status
    Offline
    schiesstomi's Avatar
    Szuper Feltöltő
    Csatlakozott
    13-05-12
    Halott Témáim
    Igen, Törölhető
    Hozzászólások
    1.338
    Köszönöm
    0
    2.248 Kapott Köszi 1.001 Témáért

    Olivér és társai (Oliver & Company) 1988.BDRip.XviD.HUN-ZHR



    Színes, magyarul beszélő, amerikai animációs film, 74 perc, 1988

    rendező: George Scribner
    forgatókönyvíró: Jim Cox, Tim Disney, James Mangold
    zeneszerző: Barry Manilow, J.A.C. Redford
    vágó: Mark A. Hester, James Melton

    szereplő(k):
    Joseph Lawrence (Oliver hangja)
    Billy Joel (Dodger hangja)
    Cheech Marin (Tito hangja)
    Bette Midler (Georgette hangja)
    Sheryl Lee Ralph (Rita hangja)

    Olivér, a kismacska egyedül bolyong New York Cityben, mígnem hozzácsapódik egy vagány kutyához, Dodgerhez és annak bandájához. A kóborkutyák és koldus gazdájuk, Fagin beveszik bandájukba a macskát. Aki egy akcióban elkeveredik és egy kislányhoz kerül. Jenny befogadja Olivert.

    General
    Format : AVI
    Format/Info : Audio Video Interleave
    File size : 701 MiB
    Duration : 1h 13mn
    Overall bit rate : 1 330 Kbps
    Writing application : VirtualDubMod 1.5.10.2 (build 2540/release)
    Writing library : VirtualDubMod build 2540/release

    Video
    ID : 0
    Format : MPEG-4 Visual
    Format profile : Advanced Simple@L5
    Format settings, BVOP : 1
    Format settings, QPel : No
    Format settings, GMC : No warppoints
    Format settings, Matrix : Default (MPEG)
    Codec ID : XVID
    Codec ID/Hint : XviD
    Duration : 1h 13mn
    Bit rate : 1 129 Kbps
    Width : 656 pixels
    Height : 304 pixels
    Display aspect ratio : 2.2:1
    Frame rate : 23.976 fps
    Color space : YUV
    Chroma subsampling : 4:2:0
    Bit depth : 8 bits
    Scan type : Progressive
    Compression mode : Lossy
    Bits/(Pixel*Frame) : 0.236
    Stream size : 595 MiB (85%)
    Writing library : XviD 64

    Audio
    ID : 1
    Format : AC-3
    Format/Info : Audio Coding 3
    Mode extension : CM (complete main)
    Codec ID : 2000
    Duration : 1h 13mn
    Bit rate mode : Constant
    Bit rate : 192 Kbps
    Channel(s) : 2 channels
    Channel positions : Front: L R
    Sampling rate : 48.0 KHz
    Bit depth : 16 bits
    Compression mode : Lossy
    Stream size : 101 MiB (14%)
    Alignment : Split accross interleaves
    Interleave, duration : 42 ms (1.00 video frame)
    Interleave, preload duration : 500 ms

    Link megtekintéséhez LÉPJ BE vagy REGISZTRÁLJ az oldalra



    Hasonló témák:
    Last edited by Táltos pelus; 2014-01-26 at 19:36. Indok: Halott linkek törölve

  2. A következő felhasználók köszönték meg schiesstomi hozzászólását

    Daisyke85 (2013-10-15)

 

 

Jogosultságok

  • Nem nyithatsz Új Témát
  • Nem válaszolhatsz a Témában
  • Nem csatolhatsz állományt
  • Nem szerkesztheted a Hozzászólásaid
  •